En el tornado (2014) Full 1080p Latino

1.032 vistas
1 estrella2 estrellas3 estrellas4 estrellas5 estrellas (1 votos, promedio: 5,00 de 5)
Cargando…

Información de En el tornado (2014) Full 1080p Latino

Datos de la película

  • Calidad: Full 1080p
  • Audio: Español Latino AC3 5.1 BLURAY - Ingles DTS 5.1 BLURAY
  • Subtitulos: Español Latino PGS - Ingles PGS
  • Resolución: 1920X1080
  • Formato: MKV
  • Codec: H.264
  • Encoder: Dracarys
  • Mediainfo: Clic para Mostrar Datos Ver
  • Format                                   : Matroska
    Format version                           : Version 4 / Version 2
    File size                                : 5.76 GiB
    Duration                                 : 1 h 29 min
    Overall bit rate                         : 9 241 kb/s
    Movie name                               : CinemaniaHDD.com
    Encoded date                             : UTC 2017-12-17 07:38:39 / UTC 2017-12-16T12:26:50Z
    Writing application                      : mkvmerge v15.0.0 ('Duel with the Devil') 64-bit
    Writing library                          : libebml v1.3.5 + libmatroska v1.4.5 / Lavf57.7.2

    Video
    ID                                       : 1
    Format                                   : AVC
    Format/Info                              : Advanced Video Codec
    Format profile                           : [email protected]
    Format settings                          : CABAC / 4 Ref Frames
    Format settings, CABAC                   : Yes
    Format settings, RefFrames               : 4 frames
    Codec ID                                 : V_MPEG4/ISO/AVC
    Duration                                 : 1 h 29 min
    Bit rate                                 : 7 101 kb/s
    Width                                    : 1 920 pixels
    Height                                   : 1 080 pixels
    Display aspect ratio                     : 16:9
    Frame rate mode                          : Constant
    Frame rate                               : 23.976 (24000/1001) FPS
    Color space                              : YUV
    Chroma subsampling                       : 4:2:0
    Bit depth                                : 8 bits
    Scan type                                : Progressive
    Bits/(Pixel*Frame)                       : 0.143
    Stream size                              : 4.43 GiB (77%)
    Title                                    : En el tornado (2014) Full 1080p Latino
    Writing library                          : x264 core 148 r2708 86b7198
    Encoding settings                        : cabac=1 / ref=4 / deblock=1:0:0 / analyse=0x3:0x133 / me=esa / subme=10 / psy=1 / psy_rd=1.00:0.00 / mixed_ref=1 / me_range=24 / chroma_me=1 / trellis=2 / 8x8dct=1 / cqm=0 / deadzone=21,11 / fast_pskip=1 / chroma_qp_offset=-2 / threads=34 / lookahead_threads=5 / sliced_threads=0 / nr=0 / decimate=1 / interlaced=0 / bluray_compat=0 / constrained_intra=0 / bframes=8 / b_pyramid=2 / b_adapt=2 / b_bias=0 / direct=3 / weightb=1 / open_gop=0 / weightp=2 / keyint=240 / keyint_min=24 / scenecut=40 / intra_refresh=0 / rc_lookahead=60 / rc=crf / mbtree=1 / crf=20.0 / qcomp=0.60 / qpmin=0 / qpmax=69 / qpstep=4 / vbv_maxrate=62500 / vbv_bufsize=78125 / crf_max=0.0 / nal_hrd=none / filler=0 / ip_ratio=1.40 / aq=1:1.00
    Language                                 : English
    Default                                  : Yes
    Forced                                   : No
    Color range                              : Limited
    Color primaries                          : BT.709
    Transfer characteristics                 : BT.709
    Matrix coefficients                      : BT.709
    Statistics Tags Issue                    : mkvmerge v15.0.0 ('Duel with the Devil') 64-bit 2017-12-17 07:38:39 / mkvmerge v15.0.0 ('Duel with the Devil') 64-bit 2017-12-17 07:38:39 / UTC 2017-12-16T12:26:50Z
    FromStats_BitRate                        : 7244671
    FromStats_Duration                       : 01:29:17.352000000
    FromStats_FrameCount                     : 128448
    FromStats_StreamSize                     : 4851531932

    Audio #1
    ID                                       : 2
    Format                                   : AC-3
    Format/Info                              : Audio Coding 3
    Format settings, Endianness              : Big
    Codec ID                                 : A_AC3
    Duration                                 : 1 h 29 min
    Bit rate mode                            : Constant
    Bit rate                                 : 448 kb/s
    Channel(s)                               : 6 channels
    Channel positions                        : Front: L C R, Side: L R, LFE
    Sampling rate                            : 48.0 kHz
    Frame rate                               : 31.250 FPS (1536 SPF)
    Bit depth                                : 16 bits
    Compression mode                         : Lossy
    Stream size                              : 286 MiB (5%)
    Language                                 : Spanish
    Service kind                             : Complete Main
    Default                                  : Yes
    Forced                                   : No
    Statistics Tags Issue                    : mkvmerge v15.0.0 ('Duel with the Devil') 64-bit 2017-12-17 07:38:39 / mkvmerge v15.0.0 ('Duel with the Devil') 64-bit 2017-12-17 07:38:39 / UTC 2017-12-16T12:26:50Z
    FromStats_BitRate                        : 448000
    FromStats_Duration                       : 01:29:17.408000000
    FromStats_FrameCount                     : 167419
    FromStats_StreamSize                     : 300014848

    Audio #2
    ID                                       : 3
    Format                                   : DTS
    Format/Info                              : Digital Theater Systems
    Mode                                     : 16
    Format settings, Endianness              : Big
    Codec ID                                 : A_DTS
    Duration                                 : 1 h 29 min
    Bit rate mode                            : Constant
    Bit rate                                 : 1 509 kb/s
    Channel(s)                               : 6 channels
    Channel positions                        : Front: L C R, Side: L R, LFE
    Sampling rate                            : 48.0 kHz
    Frame rate                               : 93.750 FPS (512 SPF)
    Bit depth                                : 24 bits
    Compression mode                         : Lossy
    Stream size                              : 964 MiB (16%)
    Language                                 : English
    Default                                  : No
    Forced                                   : No
    Statistics Tags Issue                    : mkvmerge v15.0.0 ('Duel with the Devil') 64-bit 2017-12-17 07:38:39 / mkvmerge v15.0.0 ('Duel with the Devil') 64-bit 2017-12-17 07:38:39 / UTC 2017-12-16T12:26:50Z
    FromStats_BitRate                        : 1508999
    FromStats_Duration                       : 01:29:17.387000000
    FromStats_FrameCount                     : 502255
    FromStats_StreamSize                     : 1010537060

    Text #1
    ID                                       : 4
    Format                                   : PGS
    Muxing mode                              : zlib
    Codec ID                                 : S_HDMV/PGS
    Codec ID/Info                            : Picture based subtitle format used on BDs/HD-DVDs
    Language                                 : English
    Default                                  : No
    Forced                                   : No
    Statistics Tags Issue                    : mkvmerge v15.0.0 ('Duel with the Devil') 64-bit 2017-12-17 07:38:39 / mkvmerge v15.0.0 ('Duel with the Devil') 64-bit 2017-12-17 07:38:39 / UTC 2017-12-16T12:26:50Z
    FromStats_BitRate                        : 44677
    FromStats_Duration                       : 01:28:43.318000000
    FromStats_FrameCount                     : 2927
    FromStats_StreamSize                     : 29728999

    Text #2
    ID                                       : 5
    Format                                   : PGS
    Muxing mode                              : zlib
    Codec ID                                 : S_HDMV/PGS
    Codec ID/Info                            : Picture based subtitle format used on BDs/HD-DVDs
    Language                                 : Spanish
    Default                                  : No
    Forced                                   : No
    Statistics Tags Issue                    : mkvmerge v15.0.0 ('Duel with the Devil') 64-bit 2017-12-17 07:38:39 / mkvmerge v15.0.0 ('Duel with the Devil') 64-bit 2017-12-17 07:38:39 / UTC 2017-12-16T12:26:50Z
    FromStats_BitRate                        : 39619
    FromStats_Duration                       : 01:28:37.271000000
    FromStats_FrameCount                     : 2690
    FromStats_StreamSize                     : 26333743

    Menu
    00:00:00.000                             : :Chapter 1
    00:09:37.202                             : :Chapter 2
    00:19:58.030                             : :Chapter 3
    00:29:52.249                             : :Chapter 4
    00:38:48.409                             : :Chapter 5
    00:47:59.085                             : :Chapter 6
    01:00:39.010                             : :Chapter 7
    01:08:59.510                             : :Chapter 8
    01:19:59.753                             : :Chapter 9
    01:23:58.700                             : :Chapter 10

  • Peso: 5.76 GiB

Sinopsis

En el transcurso de un solo día, la ciudad de Silverton es azotada por una serie de tornados sin precedentes. Toda la ciudad está a merced de ciclones erráticos y mortales, mientras que los cazadores de tormentas predicen que lo peor está aún por llegar. La mayoría de las personas buscan refugio, mientras que otras corren hace el vórtice, poniendo a prueba hasta dónde está dispuesto a llegar un cazador de tormentas para conseguir esa foto única que sólo se hace una vez en la vida. Contada a través de los ojos y de los objetivos fotográficos de cazadores profesionales de tormentas, aficionados en busca de emociones y valientes vecinos de la ciudad, “En el ojo de la tormenta” te lleva directamente al ojo de la tormenta para experimentar lo que ofrece la Madre Naturaleza en sus momentos más extremos.

Ficha técnica

Video trailer de la película

Enlaces de descarga

Rip de Bluray

Descargar En el tornado (2014) Full 1080p Latino




Aportes de DPeliculasHDmega la pass es:dpeliculashdmega.org Aportes de CinemaniaHD la pass es:eatsouthward.com

Películas relacionadas

  • Batman Ninja (2018) WEB-DL 1080p Latino

    2018
    Batman Ninja (2018) WEB-DL 1080p Latino

    5.0 1h 25m 2018

    Batman, junto a sus aliados y enemigos, se ve transportado desde la moderna Gotham hasta el Japón feudal....

    Director: Junpei Mizusaki

    Género: Acción

    Actores: Yuuki Kaji

  • Niños del hombre (2006) Full 1080p Latino

    2006
    Niños del hombre (2006) Full 1080p Latino

    0.0 1 h 49 min 2006

    Año 2027: el ser humano está al borde de la extinción: los hombres han perdido la capacidad de procrear...

    Director: Terry Needham

    Género: Acción

    Actores: Yolanda Vazquez

  • Winchester (2018) 1080p Latino

    2018
    Winchester (2018) 1080p Latino

    0.0 1h 39m 2018

    A finales del siglo XIX, después de la trágica muerte de su marido y su hijo, Sarah construye una casa-fortaleza...

    Director: Peter Spierig

    Género: Fantasía

    Actores: Xavier Gouault

  • Unlocked (2017) 1080p Latino

    2017
    Unlocked (2017) 1080p Latino

    3.0 1h 43m 2017

    Gira en torno a una agente de la CIA, especializada en interrogatorios, que es engañada por un sospechoso,...

    Director: Vera Homolacova

    Género: Acción

    Actores: Tosin Cole

Comentarios 4
  • soberano - 09 febrero, 2018

    Mi comentario los enlaces de mega cuando pincho me sale mega diciendome que no sirven y no puedo descargar

    • Dracarys - 14 febrero, 2018

      usa un gestor de descarga

  • Ale - 18 diciembre, 2017

    Muchas gracias bro! Ojala cuando puedas subas la de warcraft, en esta calidad se debe ver tremendo

    • Dpelis2 - 18 diciembre, 2017

      pronto. Saludos

-->