El valle de la venganza (2016) Full 1080p Latino

649 vistas
1 estrella2 estrellas3 estrellas4 estrellas5 estrellas (Ninguna valoración todavía)
Cargando…

Información de El valle de la venganza (2016) Full 1080p Latino

Datos de la película

  • Calidad: Full 1080p
  • Audio: Español Latino DTS 5.1 BLURAY - Ingles DTS 5.1 BLURAY
  • Subtitulos: Español Latino PGS - Ingles PGS
  • Resolución: 1920X1080p
  • Formato: MKV
  • Codec: H.264
  • Encoder: Dracarys
  • Mediainfo: Clic para Mostrar Datos Ver
  • Format                                   : Matroska
    Format version                           : Version 4 / Version 2
    File size                                : 8.16 GiB
    Duration                                 : 1 h 43 min
    Overall bit rate                         : 11.3 Mb/s
    Movie name                               : CinemaniaHDD.com
    Encoded date                             : UTC 2017-12-09 08:00:07 / UTC 2017-12-07T09:27:59Z
    Writing application                      : mkvmerge v15.0.0 ('Duel with the Devil') 64-bit
    Writing library                          : libebml v1.3.5 + libmatroska v1.4.5 / Lavf57.7.2

    Video
    ID                                       : 1
    Format                                   : AVC
    Format/Info                              : Advanced Video Codec
    Format profile                           : [email protected]
    Format settings                          : CABAC / 4 Ref Frames
    Format settings, CABAC                   : Yes
    Format settings, RefFrames               : 4 frames
    Codec ID                                 : V_MPEG4/ISO/AVC
    Duration                                 : 1 h 43 min
    Bit rate                                 : 8 776 kb/s
    Width                                    : 1 920 pixels
    Height                                   : 1 080 pixels
    Display aspect ratio                     : 16:9
    Frame rate mode                          : Constant
    Frame rate                               : 23.976 (24000/1001) FPS
    Color space                              : YUV
    Chroma subsampling                       : 4:2:0
    Bit depth                                : 8 bits
    Scan type                                : Progressive
    Bits/(Pixel*Frame)                       : 0.177
    Stream size                              : 6.35 GiB (78%)
    Title                                    : El valle de la venganza (2016) Full 1080p Latino
    Writing library                          : x264 core 148 r2708 86b7198
    Encoding settings                        : cabac=1 / ref=4 / deblock=1:0:0 / analyse=0x3:0x133 / me=esa / subme=10 / psy=1 / psy_rd=1.00:0.00 / mixed_ref=1 / me_range=24 / chroma_me=1 / trellis=2 / 8x8dct=1 / cqm=0 / deadzone=21,11 / fast_pskip=1 / chroma_qp_offset=-2 / threads=34 / lookahead_threads=5 / sliced_threads=0 / nr=0 / decimate=1 / interlaced=0 / bluray_compat=0 / constrained_intra=0 / bframes=8 / b_pyramid=2 / b_adapt=2 / b_bias=0 / direct=3 / weightb=1 / open_gop=0 / weightp=2 / keyint=240 / keyint_min=24 / scenecut=40 / intra_refresh=0 / rc_lookahead=60 / rc=crf / mbtree=1 / crf=20.0 / qcomp=0.60 / qpmin=0 / qpmax=69 / qpstep=4 / vbv_maxrate=62500 / vbv_bufsize=78125 / crf_max=0.0 / nal_hrd=none / filler=0 / ip_ratio=1.40 / aq=1:1.00
    Language                                 : English
    Default                                  : Yes
    Forced                                   : No
    Color range                              : Limited
    Color primaries                          : BT.709
    Transfer characteristics                 : BT.709
    Matrix coefficients                      : BT.709
    Statistics Tags Issue                    : mkvmerge v15.0.0 ('Duel with the Devil') 64-bit 2017-12-09 08:00:07 / mkvmerge v15.0.0 ('Duel with the Devil') 64-bit 2017-12-09 08:00:07 / UTC 2017-12-07T09:27:59Z
    FromStats_BitRate                        : 8976325
    FromStats_Duration                       : 01:43:37.253000000
    FromStats_FrameCount                     : 149065
    FromStats_StreamSize                     : 6976010828

    Audio #1
    ID                                       : 2
    Format                                   : DTS
    Format/Info                              : Digital Theater Systems
    Mode                                     : 16
    Format settings, Endianness              : Big
    Codec ID                                 : A_DTS
    Duration                                 : 1 h 43 min
    Bit rate mode                            : Constant
    Bit rate                                 : 768 kb/s
    Channel(s)                               : 6 channels
    Channel positions                        : Front: L C R, Side: L R, LFE
    Sampling rate                            : 48.0 kHz
    Frame rate                               : 93.750 FPS (512 SPF)
    Bit depth                                : 24 bits
    Compression mode                         : Lossy
    Stream size                              : 569 MiB (7%)
    Title                                    : DTS-Bluray
    Language                                 : Spanish
    Default                                  : Yes
    Forced                                   : No
    Statistics Tags Issue                    : mkvmerge v15.0.0 ('Duel with the Devil') 64-bit 2017-12-09 08:00:07 / mkvmerge v15.0.0 ('Duel with the Devil') 64-bit 2017-12-09 08:00:07 / UTC 2017-12-07T09:27:59Z
    FromStats_BitRate                        : 768000
    FromStats_Duration                       : 01:43:37.248000000
    FromStats_FrameCount                     : 582867
    FromStats_StreamSize                     : 596855808

    Audio #2
    ID                                       : 3
    Format                                   : DTS
    Format/Info                              : Digital Theater Systems
    Mode                                     : 16
    Format settings, Endianness              : Big
    Codec ID                                 : A_DTS
    Duration                                 : 1 h 43 min
    Bit rate mode                            : Constant
    Bit rate                                 : 1 509 kb/s
    Channel(s)                               : 6 channels
    Channel positions                        : Front: L C R, Side: L R, LFE
    Sampling rate                            : 48.0 kHz
    Frame rate                               : 93.750 FPS (512 SPF)
    Bit depth                                : 24 bits
    Compression mode                         : Lossy
    Stream size                              : 1.09 GiB (13%)
    Title                                    : DTS-Bluray
    Language                                 : English
    Default                                  : No
    Forced                                   : No
    Statistics Tags Issue                    : mkvmerge v15.0.0 ('Duel with the Devil') 64-bit 2017-12-09 08:00:07 / mkvmerge v15.0.0 ('Duel with the Devil') 64-bit 2017-12-09 08:00:07 / UTC 2017-12-07T09:27:59Z
    FromStats_BitRate                        : 1509000
    FromStats_Duration                       : 01:43:37.248000000
    FromStats_FrameCount                     : 582867
    FromStats_StreamSize                     : 1172728404

    Text #1
    ID                                       : 4
    Format                                   : PGS
    Muxing mode                              : zlib
    Codec ID                                 : S_HDMV/PGS
    Codec ID/Info                            : Picture based subtitle format used on BDs/HD-DVDs
    Language                                 : Spanish
    Default                                  : No
    Forced                                   : No
    Statistics Tags Issue                    : mkvmerge v15.0.0 ('Duel with the Devil') 64-bit 2017-12-09 08:00:07 / mkvmerge v15.0.0 ('Duel with the Devil') 64-bit 2017-12-09 08:00:07 / UTC 2017-12-07T09:27:59Z
    FromStats_BitRate                        : 30412
    FromStats_Duration                       : 01:42:51.707000000
    FromStats_FrameCount                     : 2443
    FromStats_StreamSize                     : 23461757

    Text #2
    ID                                       : 5
    Format                                   : PGS
    Muxing mode                              : zlib
    Codec ID                                 : S_HDMV/PGS
    Codec ID/Info                            : Picture based subtitle format used on BDs/HD-DVDs
    Language                                 : English
    Default                                  : No
    Forced                                   : No
    Statistics Tags Issue                    : mkvmerge v15.0.0 ('Duel with the Devil') 64-bit 2017-12-09 08:00:07 / mkvmerge v15.0.0 ('Duel with the Devil') 64-bit 2017-12-09 08:00:07 / UTC 2017-12-07T09:27:59Z
    FromStats_BitRate                        : 41890
    FromStats_Duration                       : 01:38:34.492000000
    FromStats_FrameCount                     : 2958
    FromStats_StreamSize                     : 30970189

    Menu
    00:00:00.000                             : :Chapter 1
    00:08:11.449                             : :Chapter 2
    00:12:10.605                             : :Chapter 3
    00:18:04.375                             : :Chapter 4
    00:23:38.626                             : :Chapter 5
    00:26:42.476                             : :Chapter 6
    00:31:03.278                             : :Chapter 7
    00:36:37.821                             : :Chapter 8
    00:41:27.485                             : :Chapter 9
    00:50:31.987                             : :Chapter 10
    00:56:27.050                             : :Chapter 11
    01:01:45.535                             : :Chapter 12
    01:05:32.262                             : :Chapter 13
    01:08:18.136                             : :Chapter 14
    01:12:24.423                             : :Chapter 15
    01:16:22.745                             : :Chapter 16
    01:20:23.027                             : :Chapter 17
    01:25:15.527                             : :Chapter 18
    01:33:04.412                             : :Chapter 19
    01:39:17.577                             : :Chapter 20

  • Peso: 8.16 GiB

Sinopsis

Paul, un cowboy solitario siempre en compañía de su perro, llega a un pequeño pueblo en un intento por acortar su camino hacia México. Un acto de violencia desencadena una ola de violencia que arrastra a toda la ciudad en una batalla sangrienta.

Ficha técnica

Video trailer de la película

Enlaces de descarga

Rip de Bluray

Descargar El valle de la venganza (2016) Full 1080p Latino




Aportes de DPeliculasHDmega la pass es:dpeliculashdmega.org Aportes de CinemaniaHD la pass es:eatsouthward.com

Películas relacionadas

  • Ash vs. Evil Dead (2017) Temporada 3 WEBDL Latino

    2015
    Ash vs. Evil Dead (2017) Temporada 3 WEBDL Latino

    5.0 0h 43m 2015

    Esta temporada 3 seguirá, por tanto, contando con la participación de Lucy Lawless en el papel de la...

    Director: Sam Raimi

    Género: Acción

    Actores: Ray Santiago

  • Hostiles (2017) 1080p Subtitulado

    2017
    Hostiles (2017) 1080p Subtitulado

    0.0 2h 13m 2017

    El legendario capitán del ejército Joseph J. Blocker (Christian Bale) se compromete para acompañar...

    Director: Xanthus Valan

    Género: Aventura

    Actores: Xavier Horsechief

  • Ahora los padres son ellos (2010) Full 1080p Latino

    2010
    Ahora los padres son ellos (2010) Full 1080p Latino

    5.0 1h 37m 2010

    Han tenido que pasar diez años, dos pequeños Fockers con su mujer, Pam (Polo) e incontables obstáculos...

    Director: Paul Weitz

    Género: Comedia

    Actores: Teri Polo

  • La Familia de Mi novio (2004) Full 1080p Latino

    2004
    La Familia de Mi novio (2004) Full 1080p Latino

    5.0 1h 55m 2004

    Cuatro años después de que el enfermero Greg (alias Gaylord) Focker, durante un fin de semana en casa...

    Director: Wilma Garscadden-Gahret

    Género: Comedia

    Actores: Wayne Thomas Yorke

Comentarios 2
  • josue - 10 diciembre, 2017

    Disculpen, ¿Por que el peso es menor comparado con la misma pelicula de la otra pagina es otra configuracion?

    • Dpelis2 - 10 diciembre, 2017

      Aca se usa una configuracion que tarda mucho mas, Por que que comprime mas la imagen y tiene la misma calidad que el BD50

-->