El Regalo Prometido (1996) Full 1080p Latino

1.099 vistas
1 estrella2 estrellas3 estrellas4 estrellas5 estrellas (2 votos, promedio: 5,00 de 5)
Cargando…

Información de El Regalo Prometido (1996) Full 1080p Latino

Datos de la película

  • Calidad: Full 1080p
  • Audio: Español Latino AC3 5.1 BLURAY - Ingles DTS 5.1 BLURAY
  • Subtitulos: Español Latino PGS - Ingles PGS
  • Resolución: 1920X1080p
  • Formato: MKV
  • Codec: H.264
  • Encoder: Dracarys
  • Mediainfo: Clic para Mostrar Datos Ver
  • Format                                   : Matroska
    Format version                           : Version 4 / Version 2
    File size                                : 5.89 GiB
    Duration                                 : 1 h 29 min
    Overall bit rate                         : 9 413 kb/s
    Movie name                               : CienmaniaHDD.com
    Encoded date                             : UTC 2017-12-10 04:22:12 / UTC 2017-12-10T00:48:29Z
    Writing application                      : mkvmerge v15.0.0 ('Duel with the Devil') 64-bit
    Writing library                          : libebml v1.3.5 + libmatroska v1.4.5 / Lavf57.7.2

    Video
    ID                                       : 1
    Format                                   : AVC
    Format/Info                              : Advanced Video Codec
    Format profile                           : [email protected]
    Format settings                          : CABAC / 4 Ref Frames
    Format settings, CABAC                   : Yes
    Format settings, RefFrames               : 4 frames
    Codec ID                                 : V_MPEG4/ISO/AVC
    Duration                                 : 1 h 29 min
    Bit rate                                 : 7 269 kb/s
    Width                                    : 1 920 pixels
    Height                                   : 1 080 pixels
    Display aspect ratio                     : 16:9
    Frame rate mode                          : Constant
    Frame rate                               : 23.976 (24000/1001) FPS
    Color space                              : YUV
    Chroma subsampling                       : 4:2:0
    Bit depth                                : 8 bits
    Scan type                                : Progressive
    Bits/(Pixel*Frame)                       : 0.146
    Stream size                              : 4.55 GiB (77%)
    Title                                    : El Regalo Prometido (1996) Full 1080p Latino
    Writing library                          : x264 core 148 r2708 86b7198
    Encoding settings                        : cabac=1 / ref=4 / deblock=1:0:0 / analyse=0x3:0x133 / me=esa / subme=10 / psy=1 / psy_rd=1.00:0.00 / mixed_ref=1 / me_range=24 / chroma_me=1 / trellis=2 / 8x8dct=1 / cqm=0 / deadzone=21,11 / fast_pskip=1 / chroma_qp_offset=-2 / threads=34 / lookahead_threads=5 / sliced_threads=0 / nr=0 / decimate=1 / interlaced=0 / bluray_compat=0 / constrained_intra=0 / bframes=8 / b_pyramid=2 / b_adapt=2 / b_bias=0 / direct=3 / weightb=1 / open_gop=0 / weightp=2 / keyint=240 / keyint_min=24 / scenecut=40 / intra_refresh=0 / rc_lookahead=60 / rc=crf / mbtree=1 / crf=20.0 / qcomp=0.60 / qpmin=0 / qpmax=69 / qpstep=4 / vbv_maxrate=62500 / vbv_bufsize=78125 / crf_max=0.0 / nal_hrd=none / filler=0 / ip_ratio=1.40 / aq=1:1.00
    Language                                 : English
    Default                                  : Yes
    Forced                                   : No
    Color range                              : Limited
    Color primaries                          : BT.709
    Transfer characteristics                 : BT.709
    Matrix coefficients                      : BT.709
    Statistics Tags Issue                    : mkvmerge v15.0.0 ('Duel with the Devil') 64-bit 2017-12-10 04:22:12 / mkvmerge v15.0.0 ('Duel with the Devil') 64-bit 2017-12-10 04:22:12 / UTC 2017-12-10T00:48:29Z
    FromStats_BitRate                        : 7426391
    FromStats_Duration                       : 01:29:32.784000000
    FromStats_FrameCount                     : 128818
    FromStats_StreamSize                     : 4987549514

    Audio #1
    ID                                       : 2
    Format                                   : AC-3
    Format/Info                              : Audio Coding 3
    Format settings, Endianness              : Big
    Codec ID                                 : A_AC3
    Duration                                 : 1 h 29 min
    Bit rate mode                            : Constant
    Bit rate                                 : 448 kb/s
    Channel(s)                               : 6 channels
    Channel positions                        : Front: L C R, Side: L R, LFE
    Sampling rate                            : 48.0 kHz
    Frame rate                               : 31.250 FPS (1536 SPF)
    Bit depth                                : 16 bits
    Compression mode                         : Lossy
    Stream size                              : 287 MiB (5%)
    Title                                    : AC3-Bluray
    Language                                 : Spanish
    Service kind                             : Complete Main
    Default                                  : Yes
    Forced                                   : No
    Statistics Tags Issue                    : mkvmerge v15.0.0 ('Duel with the Devil') 64-bit 2017-12-10 04:22:12 / mkvmerge v15.0.0 ('Duel with the Devil') 64-bit 2017-12-10 04:22:12 / UTC 2017-12-10T00:48:29Z
    FromStats_BitRate                        : 448000
    FromStats_Duration                       : 01:29:32.832000000
    FromStats_FrameCount                     : 167901
    FromStats_StreamSize                     : 300878592

    Audio #2
    ID                                       : 3
    Format                                   : DTS
    Format/Info                              : Digital Theater Systems
    Mode                                     : 16
    Format settings, Endianness              : Big
    Codec ID                                 : A_DTS
    Duration                                 : 1 h 29 min
    Bit rate mode                            : Constant
    Bit rate                                 : 1 509 kb/s
    Channel(s)                               : 6 channels
    Channel positions                        : Front: L C R, Side: L R, LFE
    Sampling rate                            : 48.0 kHz
    Frame rate                               : 93.750 FPS (512 SPF)
    Bit depth                                : 24 bits
    Compression mode                         : Lossy
    Stream size                              : 967 MiB (16%)
    Title                                    : DTS-Bluray
    Language                                 : English
    Default                                  : No
    Forced                                   : No
    Statistics Tags Issue                    : mkvmerge v15.0.0 ('Duel with the Devil') 64-bit 2017-12-10 04:22:12 / mkvmerge v15.0.0 ('Duel with the Devil') 64-bit 2017-12-10 04:22:12 / UTC 2017-12-10T00:48:29Z
    FromStats_BitRate                        : 1508999
    FromStats_Duration                       : 01:29:32.822000000
    FromStats_FrameCount                     : 503702
    FromStats_StreamSize                     : 1013448424

    Text #1
    ID                                       : 4
    Format                                   : PGS
    Muxing mode                              : zlib
    Codec ID                                 : S_HDMV/PGS
    Codec ID/Info                            : Picture based subtitle format used on BDs/HD-DVDs
    Language                                 : English
    Default                                  : No
    Forced                                   : No
    Statistics Tags Issue                    : mkvmerge v15.0.0 ('Duel with the Devil') 64-bit 2017-12-10 04:22:12 / mkvmerge v15.0.0 ('Duel with the Devil') 64-bit 2017-12-10 04:22:12 / UTC 2017-12-10T00:48:29Z
    FromStats_BitRate                        : 34720
    FromStats_Duration                       : 01:28:47.322000000
    FromStats_FrameCount                     : 2449
    FromStats_StreamSize                     : 23121021

    Text #2
    ID                                       : 5
    Format                                   : PGS
    Muxing mode                              : zlib
    Codec ID                                 : S_HDMV/PGS
    Codec ID/Info                            : Picture based subtitle format used on BDs/HD-DVDs
    Language                                 : Spanish
    Default                                  : No
    Forced                                   : No
    Statistics Tags Issue                    : mkvmerge v15.0.0 ('Duel with the Devil') 64-bit 2017-12-10 04:22:12 / mkvmerge v15.0.0 ('Duel with the Devil') 64-bit 2017-12-10 04:22:12 / UTC 2017-12-10T00:48:29Z
    FromStats_BitRate                        : 27434
    FromStats_Duration                       : 01:28:47.322000000
    FromStats_FrameCount                     : 2096
    FromStats_StreamSize                     : 18269139

    Menu
    00:00:00.000                             : :Chapter 1
    00:07:58.144                             : :Chapter 2
    00:13:46.242                             : :Chapter 3
    00:16:21.856                             : :Chapter 4
    00:18:36.741                             : :Chapter 5
    00:22:42.528                             : :Chapter 6
    00:24:48.862                             : :Chapter 7
    00:26:51.944                             : :Chapter 8
    00:29:14.002                             : :Chapter 9
    00:31:29.513                             : :Chapter 10
    00:37:39.299                             : :Chapter 11
    00:39:10.723                             : :Chapter 12
    00:42:15.366                             : :Chapter 13
    00:45:34.190                             : :Chapter 14
    00:53:30.624                             : :Chapter 15
    00:59:37.741                             : :Chapter 16
    01:01:56.379                             : :Chapter 17
    01:04:40.627                             : :Chapter 18
    01:09:00.303                             : :Chapter 19
    01:10:40.820                             : :Chapter 20
    01:14:15.368                             : :Chapter 21
    01:18:27.036                             : :Chapter 22
    01:21:21.502                             : :Chapter 23
    01:28:46.613                             : :Chapter 24

  • Peso: 5.89 GiB

Sinopsis

Howard Langston es un atareado hombre de negocios que llega tarde a la clase de karate de su hijo Jamie. Para que le perdone le promete que le regalará lo que le pida por navidad: Jamie le pide un muñeco Turboman. El problema es que el juguete es el más popular y está agotado en todas las jugueterías. Con sólo unas pocas horas para Navidad, Howie inicia una cómica odisea por toda la ciudad a la caza y captura del preciado objeto.

Ficha técnica

Video trailer de la película

Enlaces de descarga

Rip de Bluray

Descargar El Regalo Prometido (1996) Full 1080p Latino




Aportes de DPeliculasHDmega la pass es:dpeliculashdmega.org Aportes de CinemaniaHD la pass es:eatsouthward.com

Películas relacionadas

  • Dude (2018) NF 1080p Latino

    2018
    Dude (2018) NF 1080p Latino

    0.0 1h 30m 2018

    Cuatro mejores amigas se tienen que enfrentar a su nueva vida. Las dos últimas semanas de instituto...

    Director: Olivia Milch

    Género: Comedia

    Actores: Sydney Lucas

  • Gun shy (2017) 1080p Latino

    2017
    Gun shy (2017) 1080p Latino

    0.0 1h 31m 2017

    Basada en la novela homónima de Mark Haskell Smith. Turk Henry es una antigua estrella de rock con sobrepeso...

    Director: Simon West

    Género: Acción

    Actores: Sebastián Apiolaza

  • Maze Runner prueba de fuego (2015) Full 1080p Latino

    2015
    Maze Runner prueba de fuego (2015) Full 1080p Latino

    5.0 2 h 11 min 2015

    En este nuevo capítulo de la trepidante saga "El Corredor del Laberinto", Thomas (Dylan O'Brien) y el...

    Director: Wes Ball

    Género: Acción

    Actores: Thomas Brodie-Sangster

  • Maze Runner correr o morir (2014) Full 1080p Latino

    2014
    Maze Runner correr o morir (2014) Full 1080p Latino

    5.0 1 h 53 min 2014

    Thomas abre los ojos y se da cuenta que está en un ascensor. Lo extraño es que no recuerda nada, ni...

    Director: Wes Ball

    Género: Acción

    Actores: Will Poulter

  • Se dice de mí (2010) Full 1080p Latino

    2010
    Se dice de mí (2010) Full 1080p Latino

    5.0 1 h 32 min 2010

    El guión, obra del dramaturgo Bert V. Royal, es una versión moderna y en clave estudiantil de “La...

    Director: Will Sandoval

    Género: Comedia

    Actores: Zack Kennedy

Comentarios 4
  • Tio Higuera - 26 diciembre, 2017

    Buena pelicula. Gracias.

  • slash - 17 diciembre, 2017

    Gracias por la viejita de Arnold, saludos.

  • TorukmaTo - 10 diciembre, 2017

    wow que clasico…..por casualidad tendras la #2….gracias por compartir!!

    • Dpelis2 - 10 diciembre, 2017

      Trataremos se subir la dos.

-->