El pasajero (2018) Full 1080p Latino

2.399 vistas
1 estrella2 estrellas3 estrellas4 estrellas5 estrellas (3 votos, promedio: 4,67 de 5)
Cargando…

Información de El pasajero (2018) Full 1080p Latino

Datos de la película

  • Calidad: Full 1080p
  • Audio: Español Latino AC3 5.1 BLURAY - Ingles AC3 5.1 BLURAY
  • Subtitulos: Español Latino PGS - Ingles PGS
  • Resolución: 1920x1080p
  • Formato: MKV
  • Codec: H.264
  • Encoder: Dracarys
  • Mediainfo: Clic para Mostrar Datos Ver
  • Format                                   : Matroska
    Format version                           : Version 4 / Version 2
    File size                                : 3.40 GiB
    Duration                                 : 1 h 44 min
    Overall bit rate                         : 4 634 kb/s
    Movie name                               : CinemaniaHDD.com
    Encoded date                             : UTC 2018-04-13 05:39:45 / UTC 2018-04-13T02:23:19Z
    Writing application                      : mkvmerge v15.0.0 ('Duel with the Devil') 64-bit
    Writing library                          : libebml v1.3.5 + libmatroska v1.4.5 / Lavf57.7.2

    Video
    ID                                       : 1
    Format                                   : AVC
    Format/Info                              : Advanced Video Codec
    Format profile                           : [email protected]
    Format settings                          : CABAC / 4 Ref Frames
    Format settings, CABAC                   : Yes
    Format settings, RefFrames               : 4 frames
    Codec ID                                 : V_MPEG4/ISO/AVC
    Duration                                 : 1 h 44 min
    Bit rate                                 : 3 646 kb/s
    Width                                    : 1 920 pixels
    Height                                   : 1 080 pixels
    Display aspect ratio                     : 16:9
    Frame rate mode                          : Constant
    Frame rate                               : 23.976 (24000/1001) FPS
    Color space                              : YUV
    Chroma subsampling                       : 4:2:0
    Bit depth                                : 8 bits
    Scan type                                : Progressive
    Bits/(Pixel*Frame)                       : 0.073
    Stream size                              : 2.67 GiB (79%)
    Title                                    : El pasajero (2018) Full 1080p Latino
    Writing library                          : x264 core 148 r2708 86b7198
    Encoding settings                        : cabac=1 / ref=4 / deblock=1:0:0 / analyse=0x3:0x133 / me=esa / subme=9 / psy=1 / psy_rd=1.00:0.00 / mixed_ref=1 / me_range=16 / chroma_me=1 / trellis=2 / 8x8dct=1 / cqm=0 / deadzone=21,11 / fast_pskip=1 / chroma_qp_offset=-2 / threads=34 / lookahead_threads=2 / sliced_threads=0 / nr=0 / decimate=1 / interlaced=0 / bluray_compat=0 / constrained_intra=0 / bframes=3 / b_pyramid=2 / b_adapt=2 / b_bias=0 / direct=3 / weightb=1 / open_gop=0 / weightp=2 / keyint=240 / keyint_min=24 / scenecut=40 / intra_refresh=0 / rc_lookahead=60 / rc=crf / mbtree=1 / crf=20.0 / qcomp=0.60 / qpmin=0 / qpmax=69 / qpstep=4 / vbv_maxrate=62500 / vbv_bufsize=78125 / crf_max=0.0 / nal_hrd=none / filler=0 / ip_ratio=1.40 / aq=1:1.00
    Language                                 : English
    Default                                  : Yes
    Forced                                   : No
    Color range                              : Limited
    Color primaries                          : BT.709
    Transfer characteristics                 : BT.709
    Matrix coefficients                      : BT.709
    Statistics Tags Issue                    : mkvmerge v15.0.0 ('Duel with the Devil') 64-bit 2018-04-13 05:39:45 / mkvmerge v15.0.0 ('Duel with the Devil') 64-bit 2018-04-13 05:39:45 / UTC 2018-04-13T02:23:19Z
    FromStats_BitRate                        : 3696194
    FromStats_Duration                       : 01:44:55.331000000
    FromStats_FrameCount                     : 150937
    FromStats_StreamSize                     : 2908595806

    Audio #1
    ID                                       : 2
    Format                                   : AC-3
    Format/Info                              : Audio Coding 3
    Format settings, Endianness              : Big
    Codec ID                                 : A_AC3
    Duration                                 : 1 h 44 min
    Bit rate mode                            : Constant
    Bit rate                                 : 448 kb/s
    Channel(s)                               : 6 channels
    Channel positions                        : Front: L C R, Side: L R, LFE
    Sampling rate                            : 48.0 kHz
    Frame rate                               : 31.250 FPS (1536 SPF)
    Bit depth                                : 16 bits
    Compression mode                         : Lossy
    Delay relative to video                  : 69 ms
    Stream size                              : 336 MiB (10%)
    Language                                 : Spanish
    Service kind                             : Complete Main
    Default                                  : Yes
    Forced                                   : No
    Statistics Tags Issue                    : mkvmerge v15.0.0 ('Duel with the Devil') 64-bit 2018-04-13 05:39:45 / mkvmerge v15.0.0 ('Duel with the Devil') 64-bit 2018-04-13 05:39:45 / UTC 2018-04-13T02:23:19Z
    FromStats_BitRate                        : 448000
    FromStats_Duration                       : 01:44:55.264000000
    FromStats_FrameCount                     : 196727
    FromStats_StreamSize                     : 352534784

    Audio #2
    ID                                       : 3
    Format                                   : AC-3
    Format/Info                              : Audio Coding 3
    Format settings, Endianness              : Big
    Codec ID                                 : A_AC3
    Duration                                 : 1 h 44 min
    Bit rate mode                            : Constant
    Bit rate                                 : 448 kb/s
    Channel(s)                               : 6 channels
    Channel positions                        : Front: L C R, Side: L R, LFE
    Sampling rate                            : 48.0 kHz
    Frame rate                               : 31.250 FPS (1536 SPF)
    Bit depth                                : 16 bits
    Compression mode                         : Lossy
    Delay relative to video                  : 64 ms
    Stream size                              : 336 MiB (10%)
    Language                                 : English
    Service kind                             : Complete Main
    Default                                  : No
    Forced                                   : No
    Statistics Tags Issue                    : mkvmerge v15.0.0 ('Duel with the Devil') 64-bit 2018-04-13 05:39:45 / mkvmerge v15.0.0 ('Duel with the Devil') 64-bit 2018-04-13 05:39:45 / UTC 2018-04-13T02:23:19Z
    FromStats_BitRate                        : 448000
    FromStats_Duration                       : 01:44:55.328000000
    FromStats_FrameCount                     : 196729
    FromStats_StreamSize                     : 352538368

    Text #1
    ID                                       : 4
    Format                                   : UTF-8
    Codec ID                                 : S_TEXT/UTF8
    Codec ID/Info                            : UTF-8 Plain Text
    Title                                    : Forzados-SRT
    Language                                 : Spanish
    Default                                  : Yes
    Forced                                   : Yes
    Statistics Tags Issue                    : mkvmerge v15.0.0 ('Duel with the Devil') 64-bit 2018-04-13 05:39:45 / mkvmerge v15.0.0 ('Duel with the Devil') 64-bit 2018-04-13 05:39:45 / UTC 2018-04-13T02:23:19Z
    FromStats_BitRate                        : 0
    FromStats_Duration                       : 01:28:00.241000000
    FromStats_FrameCount                     : 15
    FromStats_StreamSize                     : 371

    Text #2
    ID                                       : 5
    Format                                   : PGS
    Muxing mode                              : zlib
    Codec ID                                 : S_HDMV/PGS
    Codec ID/Info                            : Picture based subtitle format used on BDs/HD-DVDs
    Language                                 : English
    Default                                  : No
    Forced                                   : No
    Statistics Tags Issue                    : mkvmerge v15.0.0 ('Duel with the Devil') 64-bit 2018-04-13 05:39:45 / mkvmerge v15.0.0 ('Duel with the Devil') 64-bit 2018-04-13 05:39:45 / UTC 2018-04-13T02:23:19Z
    FromStats_BitRate                        : 43797
    FromStats_Duration                       : 01:37:49.014000000
    FromStats_FrameCount                     : 2645
    FromStats_StreamSize                     : 32130758

    Text #3
    ID                                       : 6
    Format                                   : PGS
    Muxing mode                              : zlib
    Codec ID                                 : S_HDMV/PGS
    Codec ID/Info                            : Picture based subtitle format used on BDs/HD-DVDs
    Language                                 : Spanish
    Default                                  : No
    Forced                                   : No
    Statistics Tags Issue                    : mkvmerge v15.0.0 ('Duel with the Devil') 64-bit 2018-04-13 05:39:45 / mkvmerge v15.0.0 ('Duel with the Devil') 64-bit 2018-04-13 05:39:45 / UTC 2018-04-13T02:23:19Z
    FromStats_BitRate                        : 41446
    FromStats_Duration                       : 01:37:49.681000000
    FromStats_FrameCount                     : 2489
    FromStats_StreamSize                     : 30410057

    Menu
    00:00:00.000                             : :Chapter 1
    00:05:38.296                             : :Chapter 2
    00:12:23.534                             : :Chapter 3
    00:16:54.514                             : :Chapter 4
    00:25:36.160                             : :Chapter 5
    00:32:20.897                             : :Chapter 6
    00:41:37.996                             : :Chapter 7
    00:44:38.259                             : :Chapter 8
    00:52:39.031                             : :Chapter 9
    00:59:30.692                             : :Chapter 10
    01:04:50.887                             : :Chapter 11
    01:11:53.559                             : :Chapter 12
    01:20:23.360                             : :Chapter 13
    01:25:23.201                             : :Chapter 14
    01:30:45.690                             : :Chapter 15
    01:37:26.382                             : :Chapter 16

  • Peso: 3.40 GiB

Sinopsis

Durante su trayecto habitual de vuelta a casa en tren, un hombre de negocios felizmente casado comienza a hablar con una misteriosa pasajera. Pronto el hombre se verá envuelto en una conspiración criminal que amenaza con poner en peligro tanto su vida como la de sus seres más cercanos.

Ficha técnica

Video trailer de la película

Enlaces de descarga

Rip de Bluray

Descargar El pasajero (2018) Full 1080p Latino




Aportes de DPeliculasHDmega la pass es:dpeliculashdmega.org Aportes de CinemaniaHD la pass es:eatsouthward.com

Películas relacionadas

  • Batman Ninja (2018) WEB-DL 1080p Latino

    2018
    Batman Ninja (2018) WEB-DL 1080p Latino

    5.0 1h 25m 2018

    Batman, junto a sus aliados y enemigos, se ve transportado desde la moderna Gotham hasta el Japón feudal....

    Director: Junpei Mizusaki

    Género: Acción

    Actores: Yuuki Kaji

  • Niños del hombre (2006) Full 1080p Latino

    2006
    Niños del hombre (2006) Full 1080p Latino

    0.0 1 h 49 min 2006

    Año 2027: el ser humano está al borde de la extinción: los hombres han perdido la capacidad de procrear...

    Director: Terry Needham

    Género: Acción

    Actores: Yolanda Vazquez

  • Amateur (2018) NF Webrip 1080p Latino

    2018
    Amateur (2018) NF Webrip 1080p Latino

    0.0 1h 36m 2018

    Un joven jugador de baloncesto se enfrenta a las dificultades de encajar en el nuevo equipo. Adaptación...

    Director: Ryan Koo

    Género: Drama

    Actores: Tekola Cornetet

  • Unlocked (2017) 1080p Latino

    2017
    Unlocked (2017) 1080p Latino

    3.0 1h 43m 2017

    Gira en torno a una agente de la CIA, especializada en interrogatorios, que es engañada por un sospechoso,...

    Director: Vera Homolacova

    Género: Acción

    Actores: Tosin Cole

Comentarios 1
  • TorukMato - 13 abril, 2018

    Gracias !!!!

-->