El lobo de Wall Street (2013) Full 1080p Latino

1.300 vistas
1 estrella2 estrellas3 estrellas4 estrellas5 estrellas (2 votos, promedio: 5,00 de 5)
Cargando…

Información de El lobo de Wall Street (2013) Full 1080p Latino

Datos de la película

  • Calidad: Full 1080p
  • Audio: Español Latino AC3 5.1 BLURAY - Ingles DTS 5.1 BLURAY
  • Subtitulos: Español Latino PGS
  • Resolución: 1920X1080p
  • Formato: MKV
  • Codec: H.264
  • Encoder: Dracarys
  • Mediainfo: Clic para Mostrar Datos Ver
  • Format                                   : Matroska
    Format version                           : Version 4 / Version 2
    File size                                : 9.17 GiB
    Duration                                 : 2 h 59 min
    Overall bit rate                         : 7 302 kb/s
    Movie name                               : CinemaniaHDD.com
    Encoded date                             : UTC 2018-02-06 02:28:40 / UTC 2018-02-03T07:57:16Z
    Writing application                      : mkvmerge v15.0.0 ('Duel with the Devil') 64-bit
    Writing library                          : libebml v1.3.5 + libmatroska v1.4.5 / Lavf57.7.2

    Video
    ID                                       : 1
    Format                                   : AVC
    Format/Info                              : Advanced Video Codec
    Format profile                           : [email protected]
    Format settings                          : CABAC / 4 Ref Frames
    Format settings, CABAC                   : Yes
    Format settings, RefFrames               : 4 frames
    Codec ID                                 : V_MPEG4/ISO/AVC
    Duration                                 : 2 h 59 min
    Bit rate                                 : 5 008 kb/s
    Width                                    : 1 920 pixels
    Height                                   : 1 080 pixels
    Display aspect ratio                     : 16:9
    Frame rate mode                          : Constant
    Frame rate                               : 23.976 (24000/1001) FPS
    Color space                              : YUV
    Chroma subsampling                       : 4:2:0
    Bit depth                                : 8 bits
    Scan type                                : Progressive
    Bits/(Pixel*Frame)                       : 0.101
    Stream size                              : 6.29 GiB (69%)
    Title                                    : El lobo de Wall Street (2013) Full 1080p Latino
    Writing library                          : x264 core 148 r2708 86b7198
    Encoding settings                        : cabac=1 / ref=4 / deblock=1:0:0 / analyse=0x3:0x133 / me=esa / subme=10 / psy=1 / psy_rd=1.00:0.00 / mixed_ref=1 / me_range=24 / chroma_me=1 / trellis=2 / 8x8dct=1 / cqm=0 / deadzone=21,11 / fast_pskip=1 / chroma_qp_offset=-2 / threads=34 / lookahead_threads=5 / sliced_threads=0 / nr=0 / decimate=1 / interlaced=0 / bluray_compat=0 / constrained_intra=0 / bframes=8 / b_pyramid=2 / b_adapt=2 / b_bias=0 / direct=3 / weightb=1 / open_gop=0 / weightp=2 / keyint=240 / keyint_min=24 / scenecut=40 / intra_refresh=0 / rc_lookahead=60 / rc=crf / mbtree=1 / crf=20.0 / qcomp=0.60 / qpmin=0 / qpmax=69 / qpstep=4 / vbv_maxrate=62500 / vbv_bufsize=78125 / crf_max=0.0 / nal_hrd=none / filler=0 / ip_ratio=1.40 / aq=1:1.00
    Language                                 : English
    Default                                  : Yes
    Forced                                   : No
    Color range                              : Limited
    Color primaries                          : BT.709
    Transfer characteristics                 : BT.709
    Matrix coefficients                      : BT.709
    Statistics Tags Issue                    : mkvmerge v15.0.0 ('Duel with the Devil') 64-bit 2018-02-06 02:28:40 / mkvmerge v15.0.0 ('Duel with the Devil') 64-bit 2018-02-06 02:28:40 / UTC 2018-02-03T07:57:16Z
    FromStats_BitRate                        : 5118749
    FromStats_Duration                       : 02:59:52.407000000
    FromStats_FrameCount                     : 258759
    FromStats_StreamSize                     : 6905453616

    Audio #1
    ID                                       : 2
    Format                                   : AC-3
    Format/Info                              : Audio Coding 3
    Format settings, Endianness              : Big
    Codec ID                                 : A_AC3
    Duration                                 : 2 h 59 min
    Bit rate mode                            : Constant
    Bit rate                                 : 640 kb/s
    Channel(s)                               : 6 channels
    Channel positions                        : Front: L C R, Side: L R, LFE
    Sampling rate                            : 48.0 kHz
    Frame rate                               : 31.250 FPS (1536 SPF)
    Bit depth                                : 16 bits
    Compression mode                         : Lossy
    Stream size                              : 823 MiB (9%)
    Language                                 : Spanish
    Service kind                             : Complete Main
    Default                                  : Yes
    Forced                                   : No
    Statistics Tags Issue                    : mkvmerge v15.0.0 ('Duel with the Devil') 64-bit 2018-02-06 02:28:40 / mkvmerge v15.0.0 ('Duel with the Devil') 64-bit 2018-02-06 02:28:40 / UTC 2018-02-03T07:57:16Z
    FromStats_BitRate                        : 640000
    FromStats_Duration                       : 02:59:52.416000000
    FromStats_FrameCount                     : 337263
    FromStats_StreamSize                     : 863393280

    Audio #2
    ID                                       : 3
    Format                                   : DTS
    Format/Info                              : Digital Theater Systems
    Mode                                     : 16
    Format settings, Endianness              : Big
    Codec ID                                 : A_DTS
    Duration                                 : 2 h 59 min
    Bit rate mode                            : Constant
    Bit rate                                 : 1 509 kb/s
    Channel(s)                               : 6 channels
    Channel positions                        : Front: L C R, Side: L R, LFE
    Sampling rate                            : 48.0 kHz
    Frame rate                               : 93.750 FPS (512 SPF)
    Bit depth                                : 24 bits
    Compression mode                         : Lossy
    Stream size                              : 1.90 GiB (21%)
    Language                                 : English
    Default                                  : No
    Forced                                   : No
    Statistics Tags Issue                    : mkvmerge v15.0.0 ('Duel with the Devil') 64-bit 2018-02-06 02:28:40 / mkvmerge v15.0.0 ('Duel with the Devil') 64-bit 2018-02-06 02:28:40 / UTC 2018-02-03T07:57:16Z
    FromStats_BitRate                        : 1508999
    FromStats_Duration                       : 02:59:52.406000000
    FromStats_FrameCount                     : 1011788
    FromStats_StreamSize                     : 2035717456

    Text
    ID                                       : 4
    Format                                   : PGS
    Muxing mode                              : zlib
    Codec ID                                 : S_HDMV/PGS
    Codec ID/Info                            : Picture based subtitle format used on BDs/HD-DVDs
    Language                                 : Spanish
    Default                                  : No
    Forced                                   : No
    Statistics Tags Issue                    : mkvmerge v15.0.0 ('Duel with the Devil') 64-bit 2018-02-06 02:28:40 / mkvmerge v15.0.0 ('Duel with the Devil') 64-bit 2018-02-06 02:28:40 / UTC 2018-02-03T07:57:16Z
    FromStats_BitRate                        : 70424
    FromStats_Duration                       : 02:52:21.800000000
    FromStats_FrameCount                     : 6490
    FromStats_StreamSize                     : 91039006

    Menu
    00:00:00.000                             : :Chapter 1
    00:07:55.934                             : :Chapter 2
    00:14:17.857                             : :Chapter 3
    00:21:31.540                             : :Chapter 4
    00:32:08.093                             : :Chapter 5
    00:40:14.579                             : :Chapter 6
    00:48:33.702                             : :Chapter 7
    00:55:21.527                             : :Chapter 8
    01:01:56.046                             : :Chapter 9
    01:07:00.475                             : :Chapter 10
    01:11:28.910                             : :Chapter 11
    01:19:49.994                             : :Chapter 12
    01:29:06.967                             : :Chapter 13
    01:37:47.528                             : :Chapter 14
    01:45:11.931                             : :Chapter 15
    01:54:40.082                             : :Chapter 16
    02:03:20.268                             : :Chapter 17
    02:07:28.099                             : :Chapter 18
    02:17:12.850                             : :Chapter 19
    02:25:25.467                             : :Chapter 20
    02:32:08.620                             : :Chapter 21
    02:36:38.723                             : :Chapter 22
    02:44:19.391                             : :Chapter 23
    02:53:04.291                             : :Chapter 24

  • Peso: 9.17 GiB

Sinopsis

Película basada en hechos reales del corredor de bolsa neoyorquino Jordan Belfort. A mediados de los años 80, Belfort era un joven honrado que perseguía el sueño americano, pero pronto en la agencia de valores aprendió que lo más importante no era hacer ganar a sus clientes, sino ser ambicioso y ganar una buena comisión. Su enorme éxito y fortuna le valió el mote de “El lobo de Wall Street”. Dinero. Poder. Mujeres. Drogas. Las tentaciones abundaban y el temor a la ley era irrelevante. Jordan y su manada de lobos consideraban que la discreción era una cualidad anticuada; nunca se conformaban con lo que tenían.

Ficha técnica

Video trailer de la película

Enlaces de descarga

Rip de Bluray

Descargar El lobo de Wall Street (2013) Full 1080p Latino




Aportes de DPeliculasHDmega la pass es:dpeliculashdmega.org Aportes de CinemaniaHD la pass es:eatsouthward.com

Películas relacionadas

  • Ash vs. Evil Dead (2017) Temporada 3 WEBDL Latino

    2015
    Ash vs. Evil Dead (2017) Temporada 3 WEBDL Latino

    5.0 0h 43m 2015

    Esta temporada 3 seguirá, por tanto, contando con la participación de Lucy Lawless en el papel de la...

    Director: Sam Raimi

    Género: Acción

    Actores: Ray Santiago

  • Hostiles (2017) 1080p Subtitulado

    2017
    Hostiles (2017) 1080p Subtitulado

    0.0 2h 13m 2017

    El legendario capitán del ejército Joseph J. Blocker (Christian Bale) se compromete para acompañar...

    Director: Xanthus Valan

    Género: Aventura

    Actores: Xavier Horsechief

  • Ahora los padres son ellos (2010) Full 1080p Latino

    2010
    Ahora los padres son ellos (2010) Full 1080p Latino

    5.0 1h 37m 2010

    Han tenido que pasar diez años, dos pequeños Fockers con su mujer, Pam (Polo) e incontables obstáculos...

    Director: Paul Weitz

    Género: Comedia

    Actores: Teri Polo

Comentarios 1
  • Rxdrigx17 - 06 febrero, 2018

    Gracias :DD

-->