El libro de la selva (2016) Full 1080p Latino

1.125 vistas
1 estrella2 estrellas3 estrellas4 estrellas5 estrellas (3 votos, promedio: 5,00 de 5)
Cargando…

Información de El libro de la selva (2016) Full 1080p Latino

Datos de la película

  • Calidad: Full 1080p
  • Audio: Español Latino AC3 5.1 BLURAY - Ingles DTS 5.1 BLURAY
  • Subtitulos: Español Latino PGS - Ingles PGS
  • Resolución: 1920X1080
  • Formato: MKV
  • Codec: H.264
  • Encoder: Dracarys
  • Mediainfo: Clic para Mostrar Datos Ver
  • Format                                   : Matroska
    Format version                           : Version 4 / Version 2
    File size                                : 7.04 GiB
    Duration                                 : 1 h 45 min
    Overall bit rate                         : 9 516 kb/s
    Movie name                               : CinemaniaHDD.com
    Encoded date                             : UTC 2017-12-10 04:43:32 / UTC 2017-12-09T10:41:00Z
    Writing application                      : mkvmerge v15.0.0 ('Duel with the Devil') 64-bit
    Writing library                          : libebml v1.3.5 + libmatroska v1.4.5 / Lavf57.7.2

    Video
    ID                                       : 1
    Format                                   : AVC
    Format/Info                              : Advanced Video Codec
    Format profile                           : [email protected]
    Format settings                          : CABAC / 4 Ref Frames
    Format settings, CABAC                   : Yes
    Format settings, RefFrames               : 4 frames
    Codec ID                                 : V_MPEG4/ISO/AVC
    Duration                                 : 1 h 45 min
    Bit rate                                 : 7 178 kb/s
    Width                                    : 1 920 pixels
    Height                                   : 1 080 pixels
    Display aspect ratio                     : 16:9
    Frame rate mode                          : Constant
    Frame rate                               : 23.976 (24000/1001) FPS
    Color space                              : YUV
    Chroma subsampling                       : 4:2:0
    Bit depth                                : 8 bits
    Scan type                                : Progressive
    Bits/(Pixel*Frame)                       : 0.144
    Stream size                              : 5.31 GiB (75%)
    Title                                    : El libro de la selva (2016) Full 1080p Latino
    Writing library                          : x264 core 148 r2708 86b7198
    Encoding settings                        : cabac=1 / ref=4 / deblock=1:0:0 / analyse=0x3:0x133 / me=esa / subme=10 / psy=1 / psy_rd=1.00:0.00 / mixed_ref=1 / me_range=24 / chroma_me=1 / trellis=2 / 8x8dct=1 / cqm=0 / deadzone=21,11 / fast_pskip=1 / chroma_qp_offset=-2 / threads=34 / lookahead_threads=5 / sliced_threads=0 / nr=0 / decimate=1 / interlaced=0 / bluray_compat=0 / constrained_intra=0 / bframes=8 / b_pyramid=2 / b_adapt=2 / b_bias=0 / direct=3 / weightb=1 / open_gop=0 / weightp=2 / keyint=240 / keyint_min=24 / scenecut=40 / intra_refresh=0 / rc_lookahead=60 / rc=crf / mbtree=1 / crf=20.0 / qcomp=0.60 / qpmin=0 / qpmax=69 / qpstep=4 / vbv_maxrate=62500 / vbv_bufsize=78125 / crf_max=0.0 / nal_hrd=none / filler=0 / ip_ratio=1.40 / aq=1:1.00
    Language                                 : English
    Default                                  : Yes
    Forced                                   : No
    Color range                              : Limited
    Color primaries                          : BT.709
    Transfer characteristics                 : BT.709
    Matrix coefficients                      : BT.709
    Statistics Tags Issue                    : mkvmerge v15.0.0 ('Duel with the Devil') 64-bit 2017-12-10 04:43:32 / mkvmerge v15.0.0 ('Duel with the Devil') 64-bit 2017-12-10 04:43:32 / UTC 2017-12-09T10:41:00Z
    FromStats_BitRate                        : 7349325
    FromStats_Duration                       : 01:45:54.599000000
    FromStats_FrameCount                     : 152358
    FromStats_StreamSize                     : 5837751851

    Audio #1
    ID                                       : 2
    Format                                   : AC-3
    Format/Info                              : Audio Coding 3
    Format settings, Endianness              : Big
    Codec ID                                 : A_AC3
    Duration                                 : 1 h 45 min
    Bit rate mode                            : Constant
    Bit rate                                 : 640 kb/s
    Channel(s)                               : 6 channels
    Channel positions                        : Front: L C R, Side: L R, LFE
    Sampling rate                            : 48.0 kHz
    Frame rate                               : 31.250 FPS (1536 SPF)
    Bit depth                                : 16 bits
    Compression mode                         : Lossy
    Stream size                              : 485 MiB (7%)
    Title                                    : AC3- Bluray
    Language                                 : Spanish
    Service kind                             : Complete Main
    Default                                  : Yes
    Forced                                   : No
    Statistics Tags Issue                    : mkvmerge v15.0.0 ('Duel with the Devil') 64-bit 2017-12-10 04:43:32 / mkvmerge v15.0.0 ('Duel with the Devil') 64-bit 2017-12-10 04:43:32 / UTC 2017-12-09T10:41:00Z
    FromStats_BitRate                        : 640000
    FromStats_Duration                       : 01:45:54.656000000
    FromStats_FrameCount                     : 198583
    FromStats_StreamSize                     : 508372480

    Audio #2
    ID                                       : 3
    Format                                   : DTS
    Format/Info                              : Digital Theater Systems
    Mode                                     : 16
    Format settings, Endianness              : Big
    Codec ID                                 : A_DTS
    Duration                                 : 1 h 45 min
    Bit rate mode                            : Constant
    Bit rate                                 : 1 509 kb/s
    Channel(s)                               : 6 channels
    Channel positions                        : Front: L C R, Side: L R, LFE
    Sampling rate                            : 48.0 kHz
    Frame rate                               : 93.750 FPS (512 SPF)
    Bit depth                                : 24 bits
    Compression mode                         : Lossy
    Stream size                              : 1.12 GiB (16%)
    Title                                    : DTS-Bluray
    Language                                 : English
    Default                                  : No
    Forced                                   : No
    Statistics Tags Issue                    : mkvmerge v15.0.0 ('Duel with the Devil') 64-bit 2017-12-10 04:43:32 / mkvmerge v15.0.0 ('Duel with the Devil') 64-bit 2017-12-10 04:43:32 / UTC 2017-12-09T10:41:00Z
    FromStats_BitRate                        : 1508999
    FromStats_Duration                       : 01:45:54.635000000
    FromStats_FrameCount                     : 595747
    FromStats_StreamSize                     : 1198642964

    Text #1
    ID                                       : 4
    Format                                   : PGS
    Muxing mode                              : zlib
    Codec ID                                 : S_HDMV/PGS
    Codec ID/Info                            : Picture based subtitle format used on BDs/HD-DVDs
    Language                                 : English
    Default                                  : No
    Forced                                   : No
    Statistics Tags Issue                    : mkvmerge v15.0.0 ('Duel with the Devil') 64-bit 2017-12-10 04:43:32 / mkvmerge v15.0.0 ('Duel with the Devil') 64-bit 2017-12-10 04:43:32 / UTC 2017-12-09T10:41:00Z
    FromStats_BitRate                        : 27459
    FromStats_Duration                       : 01:34:32.625000000
    FromStats_FrameCount                     : 2214
    FromStats_StreamSize                     : 19470847

    Text #2
    ID                                       : 5
    Format                                   : PGS
    Muxing mode                              : zlib
    Codec ID                                 : S_HDMV/PGS
    Codec ID/Info                            : Picture based subtitle format used on BDs/HD-DVDs
    Language                                 : Spanish
    Default                                  : No
    Forced                                   : No
    Statistics Tags Issue                    : mkvmerge v15.0.0 ('Duel with the Devil') 64-bit 2017-12-10 04:43:32 / mkvmerge v15.0.0 ('Duel with the Devil') 64-bit 2017-12-10 04:43:32 / UTC 2017-12-09T10:41:00Z
    FromStats_BitRate                        : 24045
    FromStats_Duration                       : 01:44:58.959000000
    FromStats_FrameCount                     : 2204
    FromStats_StreamSize                     : 18932989

    Menu
    00:00:00.000                             : :Chapter 1
    00:00:48.215                             : :Chapter 2
    00:05:15.315                             : :Chapter 3
    00:09:02.459                             : :Chapter 4
    00:12:42.178                             : :Chapter 5
    00:16:34.452                             : :Chapter 6
    00:21:20.029                             : :Chapter 7
    00:27:15.134                             : :Chapter 8
    00:35:04.144                             : :Chapter 9
    00:43:21.724                             : :Chapter 10
    00:48:05.132                             : :Chapter 11
    00:53:29.248                             : :Chapter 12
    00:58:03.271                             : :Chapter 13
    01:05:46.443                             : :Chapter 14
    01:10:35.523                             : :Chapter 15
    01:17:01.325                             : :Chapter 16
    01:20:48.927                             : :Chapter 17
    01:24:46.540                             : :Chapter 18
    01:30:32.969                             : :Chapter 19
    01:35:53.206                             : :Chapter 20

  • Peso: 7.04 GiB

Sinopsis

Después de ser abandonado en la selva, una familia de lobos cría al pequeño cachorro humano Mowgli. Gracias a la manada de lobos, sale adelante hasta ser capaz de enfrentarse por sí mismo a los peligros de la selva. Pero con la llegada del peligroso Shere Khan, Mowgli deja de ser bien recibido. Este temible tigre, resentido por las heridas que le ha ocasionado el hombre, ha prometido eliminar toda amenaza humana en la selva. Así que a Mowgli no le queda más remedio que abandonar el único hogar que ha conocido en toda su vida. El pequeño niño humano emprenderá entonces un arriesgado y fascinante viaje de autodescubrimiento, para regresar junto a su especie, acompañado de la siempre fiel Bagheera, la pantera mentora del niño, y el despreocupado y divertido oso Baloo. Esta nueva adaptación de El Libro de la selva de Rudyard Kipling, que combina acción real con escenarios fotorrealistas y animales generados por ordenador, corre a cargo de Disney.

Ficha técnica

Video trailer de la película

Enlaces de descarga

Rip de Bluray

Descargar El libro de la selva (2016) Full 1080p Latino




Aportes de DPeliculasHDmega la pass es:dpeliculashdmega.org Aportes de CinemaniaHD la pass es:eatsouthward.com

Películas relacionadas

  • A Ghost Story (2017) 1080p Latino

    2017
    A Ghost Story (2017) 1080p Latino

    0.0 1h 27m 2017

    Un hombre recientemente fallecido regresa a su casa como un fantasma vestido con una sábana blanca para...

    Director: David Lowery

    Género: Drama

    Actores: Yasmina Gutierrez

  • Gun shy (2017) 1080p Latino

    2017
    Gun shy (2017) 1080p Latino

    0.0 1h 31m 2017

    Basada en la novela homónima de Mark Haskell Smith. Turk Henry es una antigua estrella de rock con sobrepeso...

    Director: Simon West

    Género: Acción

    Actores: Sebastián Apiolaza

  • Maze Runner prueba de fuego (2015) Full 1080p Latino

    2015
    Maze Runner prueba de fuego (2015) Full 1080p Latino

    5.0 2 h 11 min 2015

    En este nuevo capítulo de la trepidante saga "El Corredor del Laberinto", Thomas (Dylan O'Brien) y el...

    Director: Wes Ball

    Género: Acción

    Actores: Thomas Brodie-Sangster

  • Maze Runner correr o morir (2014) Full 1080p Latino

    2014
    Maze Runner correr o morir (2014) Full 1080p Latino

    5.0 1 h 53 min 2014

    Thomas abre los ojos y se da cuenta que está en un ascensor. Lo extraño es que no recuerda nada, ni...

    Director: Wes Ball

    Género: Acción

    Actores: Will Poulter

  • Se dice de mí (2010) Full 1080p Latino

    2010
    Se dice de mí (2010) Full 1080p Latino

    5.0 1 h 32 min 2010

    El guión, obra del dramaturgo Bert V. Royal, es una versión moderna y en clave estudiantil de “La...

    Director: Will Sandoval

    Género: Comedia

    Actores: Zack Kennedy

Comentarios 1
  • Leonardo - 10 diciembre, 2017

    Muchas gracias, gran calidad

-->