El desesperar de los muertos (2004) Full 1080p Latino

794 vistas
1 estrella2 estrellas3 estrellas4 estrellas5 estrellas (Ninguna valoración todavía)
Cargando…

Información de El desesperar de los muertos (2004) Full 1080p Latino

Datos de la película

  • Calidad: Full 1080p
  • Audio: Español Latino DTS 5.1 BLURAY - Ingles DTS 5.1 BLURAY
  • Subtitulos: Español Latino PGS - Ingles PGS
  • Resolución: 1920X1080p
  • Formato: MKV
  • Codec: H.264
  • Encoder: Dracarys
  • Mediainfo: Clic para Mostrar Datos Ver
  • Format                                   : Matroska
    Format version                           : Version 4 / Version 2
    File size                                : 8.80 GiB
    Duration                                 : 1 h 39 min
    Overall bit rate                         : 12.7 Mb/s
    Movie name                               : CinemaniaHDD.com
    Encoded date                             : UTC 2017-12-23 06:24:23 / UTC 2017-12-22T14:42:43Z
    Writing application                      : mkvmerge v15.0.0 ('Duel with the Devil') 64-bit
    Writing library                          : libebml v1.3.5 + libmatroska v1.4.5 / Lavf57.7.2

    Video
    ID                                       : 1
    Format                                   : AVC
    Format/Info                              : Advanced Video Codec
    Format profile                           : [email protected]
    Format settings                          : CABAC / 4 Ref Frames
    Format settings, CABAC                   : Yes
    Format settings, RefFrames               : 4 frames
    Codec ID                                 : V_MPEG4/ISO/AVC
    Duration                                 : 1 h 39 min
    Bit rate                                 : 10.1 Mb/s
    Width                                    : 1 920 pixels
    Height                                   : 1 080 pixels
    Display aspect ratio                     : 16:9
    Frame rate mode                          : Constant
    Frame rate                               : 23.976 (24000/1001) FPS
    Color space                              : YUV
    Chroma subsampling                       : 4:2:0
    Bit depth                                : 8 bits
    Scan type                                : Progressive
    Bits/(Pixel*Frame)                       : 0.204
    Stream size                              : 7.05 GiB (80%)
    Title                                    : El desesperar de los muertos (2004) Full 1080p Latino
    Writing library                          : x264 core 148 r2708 86b7198
    Encoding settings                        : cabac=1 / ref=4 / deblock=1:0:0 / analyse=0x3:0x133 / me=esa / subme=10 / psy=1 / psy_rd=1.00:0.00 / mixed_ref=1 / me_range=24 / chroma_me=1 / trellis=2 / 8x8dct=1 / cqm=0 / deadzone=21,11 / fast_pskip=1 / chroma_qp_offset=-2 / threads=34 / lookahead_threads=5 / sliced_threads=0 / nr=0 / decimate=1 / interlaced=0 / bluray_compat=0 / constrained_intra=0 / bframes=8 / b_pyramid=2 / b_adapt=2 / b_bias=0 / direct=3 / weightb=1 / open_gop=0 / weightp=2 / keyint=240 / keyint_min=24 / scenecut=40 / intra_refresh=0 / rc_lookahead=60 / rc=crf / mbtree=1 / crf=20.0 / qcomp=0.60 / qpmin=0 / qpmax=69 / qpstep=4 / vbv_maxrate=62500 / vbv_bufsize=78125 / crf_max=0.0 / nal_hrd=none / filler=0 / ip_ratio=1.40 / aq=1:1.00
    Language                                 : English
    Default                                  : Yes
    Forced                                   : No
    Color range                              : Limited
    Color primaries                          : BT.709
    Transfer characteristics                 : BT.709
    Matrix coefficients                      : BT.709
    Statistics Tags Issue                    : mkvmerge v15.0.0 ('Duel with the Devil') 64-bit 2017-12-23 06:24:23 / mkvmerge v15.0.0 ('Duel with the Devil') 64-bit 2017-12-23 06:24:23 / UTC 2017-12-22T14:42:43Z
    FromStats_BitRate                        : 10380586
    FromStats_Duration                       : 01:39:20.121000000
    FromStats_FrameCount                     : 142900
    FromStats_StreamSize                     : 7733694071

    Audio #1
    ID                                       : 2
    Format                                   : DTS
    Format/Info                              : Digital Theater Systems
    Mode                                     : 16
    Format settings, Endianness              : Big
    Codec ID                                 : A_DTS
    Duration                                 : 1 h 39 min
    Bit rate mode                            : Constant
    Bit rate                                 : 768 kb/s
    Channel(s)                               : 6 channels
    Channel positions                        : Front: L C R, Side: L R, LFE
    Sampling rate                            : 48.0 kHz
    Frame rate                               : 93.750 FPS (512 SPF)
    Bit depth                                : 24 bits
    Compression mode                         : Lossy
    Stream size                              : 546 MiB (6%)
    Language                                 : Spanish
    Default                                  : Yes
    Forced                                   : No
    Statistics Tags Issue                    : mkvmerge v15.0.0 ('Duel with the Devil') 64-bit 2017-12-23 06:24:23 / mkvmerge v15.0.0 ('Duel with the Devil') 64-bit 2017-12-23 06:24:23 / UTC 2017-12-22T14:42:43Z
    FromStats_BitRate                        : 767999
    FromStats_Duration                       : 01:39:27.222000000
    FromStats_FrameCount                     : 559427
    FromStats_StreamSize                     : 572853248

    Audio #2
    ID                                       : 3
    Format                                   : DTS
    Format/Info                              : Digital Theater Systems
    Mode                                     : 16
    Format settings, Endianness              : Big
    Codec ID                                 : A_DTS
    Duration                                 : 1 h 39 min
    Bit rate mode                            : Constant
    Bit rate                                 : 1 509 kb/s
    Channel(s)                               : 6 channels
    Channel positions                        : Front: L C R, Side: L R, LFE
    Sampling rate                            : 48.0 kHz
    Frame rate                               : 93.750 FPS (512 SPF)
    Bit depth                                : 24 bits
    Compression mode                         : Lossy
    Stream size                              : 1.05 GiB (12%)
    Language                                 : English
    Default                                  : No
    Forced                                   : No
    Statistics Tags Issue                    : mkvmerge v15.0.0 ('Duel with the Devil') 64-bit 2017-12-23 06:24:23 / mkvmerge v15.0.0 ('Duel with the Devil') 64-bit 2017-12-23 06:24:23 / UTC 2017-12-22T14:42:43Z
    FromStats_BitRate                        : 1509000
    FromStats_Duration                       : 01:39:20.128000000
    FromStats_FrameCount                     : 558762
    FromStats_StreamSize                     : 1124229144

    Text #1
    ID                                       : 4
    Format                                   : PGS
    Muxing mode                              : zlib
    Codec ID                                 : S_HDMV/PGS
    Codec ID/Info                            : Picture based subtitle format used on BDs/HD-DVDs
    Title                                    : Forzados
    Language                                 : Spanish
    Default                                  : Yes
    Forced                                   : Yes
    Statistics Tags Issue                    : mkvmerge v15.0.0 ('Duel with the Devil') 64-bit 2017-12-23 06:24:23 / mkvmerge v15.0.0 ('Duel with the Devil') 64-bit 2017-12-23 06:24:23 / UTC 2017-12-22T14:42:43Z
    FromStats_BitRate                        : 727
    FromStats_Duration                       : 01:28:23.256000000
    FromStats_FrameCount                     : 44
    FromStats_StreamSize                     : 482269

    Text #2
    ID                                       : 5
    Format                                   : PGS
    Muxing mode                              : zlib
    Codec ID                                 : S_HDMV/PGS
    Codec ID/Info                            : Picture based subtitle format used on BDs/HD-DVDs
    Language                                 : Spanish
    Default                                  : No
    Forced                                   : No
    Statistics Tags Issue                    : mkvmerge v15.0.0 ('Duel with the Devil') 64-bit 2017-12-23 06:24:23 / mkvmerge v15.0.0 ('Duel with the Devil') 64-bit 2017-12-23 06:24:23 / UTC 2017-12-22T14:42:43Z
    FromStats_BitRate                        : 41698
    FromStats_Duration                       : 01:33:03.036000000
    FromStats_FrameCount                     : 2799
    FromStats_StreamSize                     : 29100555

    Text #3
    ID                                       : 6
    Format                                   : PGS
    Muxing mode                              : zlib
    Codec ID                                 : S_HDMV/PGS
    Codec ID/Info                            : Picture based subtitle format used on BDs/HD-DVDs
    Language                                 : English
    Default                                  : No
    Forced                                   : No
    Statistics Tags Issue                    : mkvmerge v15.0.0 ('Duel with the Devil') 64-bit 2017-12-23 06:24:23 / mkvmerge v15.0.0 ('Duel with the Devil') 64-bit 2017-12-23 06:24:23 / UTC 2017-12-22T14:42:43Z
    FromStats_BitRate                        : 51234
    FromStats_Duration                       : 01:34:25.117000000
    FromStats_FrameCount                     : 3092
    FromStats_StreamSize                     : 36280899

    Menu
    00:00:00.000                             : :Last Orders
    00:03:35.048                             : :Opening Titles
    00:05:02.886                             : :Ed And Breakfast
    00:07:26.571                             : :Good Mourning
    00:08:52.490                             : :Team Pie
    00:12:14.943                             : :Pigeon Street
    00:13:50.538                             : :Eating Out?
    00:15:58.958                             : :The Dumping
    00:18:26.856                             : :Hog Lumps And Heartache
    00:21:48.641                             : :White Lines, Don't Do It
    00:25:34.992                             : :Residential Evil
    00:28:43.388                             : :There's Something About Mary
    00:30:53.268                             : :Here Comes The Groom
    00:33:05.775                             : :Jukebox Jury
    00:35:23.872                             : :The Mummy
    00:36:59.592                             : :The Perfect Plan
    00:39:33.705                             : :Curtains For Pete
    00:40:34.933                             : :Escape From Crouch End
    00:42:11.070                             : :Kill Phil
    00:46:04.553                             : :Blood Actually
    00:47:41.192                             : :In To Bat
    00:48:35.996                             : :Bowling A Maiden Over
    00:51:32.965                             : :Sunday Driver
    00:55:00.672                             : :The Others
    00:56:49.239                             : :Garden Party
    00:58:04.564                             : :Swingball Wizard
    01:00:09.147                             : :Playing Dead
    01:04:20.398                             : :Pub Grub
    01:07:50.483                             : :Monkey Nuts
    01:10:42.947                             : :Killer Queen
    01:13:57.391                             : :First Person Shoot 'Em Up
    01:16:39.428                             : :Ever Decreasing Barbara
    01:21:23.295                             : :Cocktails And Entrails
    01:25:24.828                             : :Cellar Dwellers
    01:29:58.393                             : :Staying Alive
    01:31:36.491                             : :Remembering 'Z' Day
    01:33:47.664                             : :End Credits

  • Peso: 8.80 GiB

Sinopsis

La vida de Shaun es un callejón sin salida. Se pasa la vida en la taberna local con su amigo íntimo Ed, discute con su madre y descuida a su novia, Liz. Cuando Liz le deja plantado. Shaun decide, finalmente, poner su vida en orden. Tiene que reconquistar el corazón de su novia, enmendar sus relaciones con su madre y enfrentarse a las responsabilidades de un adulto.

Ficha técnica

  • Titulo original: Shaun of the Dead
  • Fecha de lanzamiento: 09-04-2004 (France, United Kingdom, United States of America)
  • Director: Edgar Wright
  • Género: Comedia, FULL 1080p Plateadas, Terror
  • Puntuación: 0.0 0 votos
  • Duración:
    1 h 39 min

Video trailer de la película

Enlaces de descarga

Rip de Bluray

Descargar El desesperar de los muertos (2004) Full 1080p Latino




Aportes de DPeliculasHDmega la pass es:dpeliculashdmega.org Aportes de CinemaniaHD la pass es:eatsouthward.com

Películas relacionadas

  • Niños del hombre (2006) Full 1080p Latino

    2006
    Niños del hombre (2006) Full 1080p Latino

    0.0 1 h 49 min 2006

    Año 2027: el ser humano está al borde de la extinción: los hombres han perdido la capacidad de procrear...

    Director: Terry Needham

    Género: Acción

    Actores: Yolanda Vazquez

  • Para atrapar al ladrón (1955) Full 1080p Latino

    1955
    Para atrapar al ladrón (1955) Full 1080p Latino

    0.0 1h 46m 1955

    A pesar de que John Robie "El Gato" (Cary Grant) es un ladrón de joyas reformado, se convierte en el...

    Director: Alfred Hitchcock

    Género: Crimen

    Actores: William 'Wee Willie' Davis

  • Si decido quedarme (2014) Full 1080p Latino

    2014
    Si decido quedarme (2014) Full 1080p Latino

    5.0 1 h 46 min 2014

    Mia es una joven de 17 años que parece tenerlo todo en la vida: una famila adorable, un novio que la...

    Director: R.J. Cutler

    Género: Drama

    Actores: William C. Vaughan

  • Dude (2018) NF 1080p Latino

    2018
    Dude (2018) NF 1080p Latino

    5.0 1h 30m 2018

    Cuatro mejores amigas se tienen que enfrentar a su nueva vida. Las dos últimas semanas de instituto...

    Director: Olivia Milch

    Género: Comedia

    Actores: Sydney Lucas

Comentarios 1
  • criss - 27 diciembre, 2017

    a descargar a ver que tal es. Gracias

-->