El amanecer de los muertos (2004) UNRATED Full 1080p Latino

1.167 vistas
1 estrella2 estrellas3 estrellas4 estrellas5 estrellas (1 votos, promedio: 5,00 de 5)
Cargando…

Información de El amanecer de los muertos (2004) UNRATED Full 1080p Latino

Datos de la película

  • Calidad: Full 1080p
  • Audio: Español Latino AC3 5.1 BLURAY - Ingles DTS 5.1 BLURAY
  • Subtitulos: Español Latino PGS - Ingles PGS
  • Resolución: 1920X1080p
  • Formato: MKV
  • Codec: H.264
  • Encoder: Dracarys
  • Mediainfo: Clic para Mostrar Datos Ver
  • Format                                   : Matroska
    Format version                           : Version 4 / Version 2
    File size                                : 9.39 GiB
    Duration                                 : 1 h 49 min
    Overall bit rate                         : 12.3 Mb/s
    Movie name                               : CinemaniaHDD.com
    Encoded date                             : UTC 2017-12-21 21:46:04 / UTC 2017-12-20T10:13:37Z
    Writing application                      : mkvmerge v15.0.0 ('Duel with the Devil') 64-bit
    Writing library                          : libebml v1.3.5 + libmatroska v1.4.5 / Lavf57.7.2

    Video
    ID                                       : 1
    Format                                   : AVC
    Format/Info                              : Advanced Video Codec
    Format profile                           : [email protected]
    Format settings                          : CABAC / 4 Ref Frames
    Format settings, CABAC                   : Yes
    Format settings, RefFrames               : 4 frames
    Codec ID                                 : V_MPEG4/ISO/AVC
    Duration                                 : 1 h 49 min
    Bit rate                                 : 9 913 kb/s
    Width                                    : 1 920 pixels
    Height                                   : 1 080 pixels
    Display aspect ratio                     : 16:9
    Frame rate mode                          : Constant
    Frame rate                               : 23.976 (24000/1001) FPS
    Color space                              : YUV
    Chroma subsampling                       : 4:2:0
    Bit depth                                : 8 bits
    Scan type                                : Progressive
    Bits/(Pixel*Frame)                       : 0.199
    Stream size                              : 7.56 GiB (81%)
    Title                                    : El amanecer de los muertos (2004) UNRATED Full 1080p Latino
    Writing library                          : x264 core 148 r2708 86b7198
    Encoding settings                        : cabac=1 / ref=4 / deblock=1:0:0 / analyse=0x3:0x133 / me=esa / subme=10 / psy=1 / psy_rd=1.00:0.00 / mixed_ref=1 / me_range=24 / chroma_me=1 / trellis=2 / 8x8dct=1 / cqm=0 / deadzone=21,11 / fast_pskip=1 / chroma_qp_offset=-2 / threads=34 / lookahead_threads=5 / sliced_threads=0 / nr=0 / decimate=1 / interlaced=0 / bluray_compat=0 / constrained_intra=0 / bframes=8 / b_pyramid=2 / b_adapt=2 / b_bias=0 / direct=3 / weightb=1 / open_gop=0 / weightp=2 / keyint=240 / keyint_min=24 / scenecut=40 / intra_refresh=0 / rc_lookahead=60 / rc=crf / mbtree=1 / crf=20.0 / qcomp=0.60 / qpmin=0 / qpmax=69 / qpstep=4 / vbv_maxrate=62500 / vbv_bufsize=78125 / crf_max=0.0 / nal_hrd=none / filler=0 / ip_ratio=1.40 / aq=1:1.00
    Language                                 : English
    Default                                  : Yes
    Forced                                   : No
    Color range                              : Limited
    Color primaries                          : BT.709
    Transfer characteristics                 : BT.709
    Matrix coefficients                      : BT.709
    Statistics Tags Issue                    : mkvmerge v15.0.0 ('Duel with the Devil') 64-bit 2017-12-21 21:46:04 / mkvmerge v15.0.0 ('Duel with the Devil') 64-bit 2017-12-21 21:46:04 / UTC 2017-12-20T10:13:37Z
    FromStats_BitRate                        : 10140969
    FromStats_Duration                       : 01:49:11.504000000
    FromStats_FrameCount                     : 157079
    FromStats_StreamSize                     : 8304824990

    Audio #1
    ID                                       : 2
    Format                                   : AC-3
    Format/Info                              : Audio Coding 3
    Format settings, Endianness              : Big
    Codec ID                                 : A_AC3
    Duration                                 : 1 h 49 min
    Bit rate mode                            : Constant
    Bit rate                                 : 640 kb/s
    Channel(s)                               : 6 channels
    Channel positions                        : Front: L C R, Side: L R, LFE
    Sampling rate                            : 48.0 kHz
    Frame rate                               : 31.250 FPS (1536 SPF)
    Bit depth                                : 16 bits
    Compression mode                         : Lossy
    Delay relative to video                  : 200 ms
    Stream size                              : 500 MiB (5%)
    Language                                 : Spanish
    Service kind                             : Complete Main
    Default                                  : Yes
    Forced                                   : No
    Statistics Tags Issue                    : mkvmerge v15.0.0 ('Duel with the Devil') 64-bit 2017-12-21 21:46:04 / mkvmerge v15.0.0 ('Duel with the Devil') 64-bit 2017-12-21 21:46:04 / UTC 2017-12-20T10:13:37Z
    FromStats_BitRate                        : 640000
    FromStats_Duration                       : 01:49:12.576000000
    FromStats_FrameCount                     : 204768
    FromStats_StreamSize                     : 524206080

    Audio #2
    ID                                       : 3
    Format                                   : DTS
    Format/Info                              : Digital Theater Systems
    Mode                                     : 16
    Format settings, Endianness              : Big
    Codec ID                                 : A_DTS
    Duration                                 : 1 h 49 min
    Bit rate mode                            : Constant
    Bit rate                                 : 1 509 kb/s
    Channel(s)                               : 6 channels
    Channel positions                        : Front: L C R, Side: L R, LFE
    Sampling rate                            : 48.0 kHz
    Frame rate                               : 93.750 FPS (512 SPF)
    Bit depth                                : 24 bits
    Compression mode                         : Lossy
    Stream size                              : 1.15 GiB (12%)
    Language                                 : English
    Default                                  : No
    Forced                                   : No
    Statistics Tags Issue                    : mkvmerge v15.0.0 ('Duel with the Devil') 64-bit 2017-12-21 21:46:04 / mkvmerge v15.0.0 ('Duel with the Devil') 64-bit 2017-12-21 21:46:04 / UTC 2017-12-20T10:13:37Z
    FromStats_BitRate                        : 1508999
    FromStats_Duration                       : 01:49:11.531000000
    FromStats_FrameCount                     : 614206
    FromStats_StreamSize                     : 1235782472

    Text #1
    ID                                       : 4
    Format                                   : PGS
    Muxing mode                              : zlib
    Codec ID                                 : S_HDMV/PGS
    Codec ID/Info                            : Picture based subtitle format used on BDs/HD-DVDs
    Language                                 : English
    Default                                  : No
    Forced                                   : No
    Statistics Tags Issue                    : mkvmerge v15.0.0 ('Duel with the Devil') 64-bit 2017-12-21 21:46:04 / mkvmerge v15.0.0 ('Duel with the Devil') 64-bit 2017-12-21 21:46:04 / UTC 2017-12-20T10:13:37Z
    FromStats_BitRate                        : 29996
    FromStats_Duration                       : 01:46:38.559000000
    FromStats_FrameCount                     : 2238
    FromStats_StreamSize                     : 23991775

    Text #2
    ID                                       : 5
    Format                                   : PGS
    Muxing mode                              : zlib
    Codec ID                                 : S_HDMV/PGS
    Codec ID/Info                            : Picture based subtitle format used on BDs/HD-DVDs
    Language                                 : Spanish
    Default                                  : No
    Forced                                   : No
    Statistics Tags Issue                    : mkvmerge v15.0.0 ('Duel with the Devil') 64-bit 2017-12-21 21:46:04 / mkvmerge v15.0.0 ('Duel with the Devil') 64-bit 2017-12-21 21:46:04 / UTC 2017-12-20T10:13:37Z
    FromStats_BitRate                        : 25813
    FromStats_Duration                       : 01:46:33.471000000
    FromStats_FrameCount                     : 1960
    FromStats_StreamSize                     : 20629761

    Menu
    00:00:00.000                             : :A Nice Day
    00:04:29.561                             : :Lock All Doors
    00:10:39.097                             : :Main Titles
    00:13:15.795                             : :Refuge
    00:19:43.432                             : :Intruders
    00:23:27.489                             : :Cj's Turf
    00:26:35.803                             : :S.O.S.
    00:33:07.235                             : :No More Room
    00:42:28.254                             : :New Arrivals
    00:47:36.062                             : :Kill Tucker, Too
    00:56:29.720                             : :Sickness Rising
    01:01:36.735                             : :Blackout
    01:08:48.625                             : :Family Man
    01:15:22.935                             : :Taking Action
    01:20:17.313                             : :Saving Andy
    01:24:15.342                             : :Nicole's Rescue
    01:30:03.732                             : :Run!
    01:33:27.769                             : :Escape
    01:39:47.899                             : :Valor
    01:44:37.062                             : :End Titles/Hope

  • Peso: 9.39 GiB

Sinopsis

Remake del clásico de horror de George A. Romero. Una inexplicable plaga ha diezmado la población del planeta, convirtiendo a los muertos en horribles zombies que continuamente buscan carne y sangre humana para sobrevivir. En Wisconsin, un variopinto grupo de personas que han escapado a la plaga, tratan de salvar sus vidas refugiándose en un centro comercial, donde deben aprender no sólo a protegerse de las hordas de zombies, sino también a convivir.

 

Nota: Audio latino Actualizado AC3 640 kb/s Bluray

Ficha técnica

Video trailer de la película

Enlaces de descarga

Rip de Bluray

Descargar El amanecer de los muertos (2004) UNRATED Full 1080p Latino




Aportes de DPeliculasHDmega la pass es:dpeliculashdmega.org Aportes de CinemaniaHD la pass es:eatsouthward.com

Películas relacionadas

  • A Ghost Story (2017) 1080p Latino

    2017
    A Ghost Story (2017) 1080p Latino

    0.0 1h 27m 2017

    Un hombre recientemente fallecido regresa a su casa como un fantasma vestido con una sábana blanca para...

    Director: David Lowery

    Género: Drama

    Actores: Yasmina Gutierrez

  • Bushwick (2017) 1080p Latino

    2017
    Bushwick (2017) 1080p Latino

    5.0 1h 34m 2017

    Cuando Lucy sale del metro en Bushwick, el último barrio de moda de Nueva York, no encuentra ni hipsters...

    Director: Jonathan Milott

    Género: Acción

    Actores: Myra Lucretia Taylor

  • Gun shy (2017) 1080p Latino

    2017
    Gun shy (2017) 1080p Latino

    0.0 1h 31m 2017

    Basada en la novela homónima de Mark Haskell Smith. Turk Henry es una antigua estrella de rock con sobrepeso...

    Director: Simon West

    Género: Acción

    Actores: Sebastián Apiolaza

  • Deep Blue Sea 2 (2018) 1080p Latino

    2018
    Deep Blue Sea 2 (2018) 1080p Latino

    5.0 1h 34m 2018

    La Doctora Misty Calhoun, conservacionista de tiburones, es invitada para asesorar un proyecto secreto...

    Director: Darin Scott

    Género: Acción

    Actores: Rob Mayes

  • Maze Runner prueba de fuego (2015) Full 1080p Latino

    2015
    Maze Runner prueba de fuego (2015) Full 1080p Latino

    5.0 2 h 11 min 2015

    En este nuevo capítulo de la trepidante saga "El Corredor del Laberinto", Thomas (Dylan O'Brien) y el...

    Director: Wes Ball

    Género: Acción

    Actores: Thomas Brodie-Sangster

Comentarios 6
  • RuddyYankee - 25 diciembre, 2017

    Saludo amigo, sólo hay ésta parte la 1ra, no más porque había escuchado que hay 3 de ésta es cierto??

    • Dpelis2 - 26 diciembre, 2017

      No te entiendo XD

  • Ragnarok - 23 diciembre, 2017

    Hola, es la misma versión que habian subido antes? la Director Cut?

    • Dpelis2 - 23 diciembre, 2017

      correcto

  • snj - 21 diciembre, 2017

    Hola
    esta película en la otra web esta con audio latino DTS del BD, ¿lo pueden subir aquí?

    • Dpelis2 - 21 diciembre, 2017

      Hola Amigo se actualizo el post con audio AC3 bluray, el DTS estaba dañado Saludos

-->