Dunkirk (2017) IMAX 1080p Latino

4.083 vistas
1 estrella2 estrellas3 estrellas4 estrellas5 estrellas (3 votos, promedio: 4,33 de 5)
Cargando…

Información de Dunkirk (2017) IMAX 1080p Latino

Datos de la película

  • Calidad: 1080p
  • Audio: Español Latino AC3 5.1 DVD - Ingles AC3 5.1 BLURAY
  • Subtitulos: Español Latino SRT
  • Resolución: 1920X1080p
  • Formato: MKV
  • Codec: H.264
  • Encoder: Dracarys
  • Mediainfo: Clic para Mostrar Datos Ver
  • Format                                   : Matroska
    Format version                           : Version 4 / Version 2
    File size                                : 3.06 GiB
    Duration                                 : 1 h 46 min
    Overall bit rate                         : 4 103 kb/s
    Movie name                               : eatsouthward.com
    Encoded date                             : UTC 2017-12-05 03:41:25 / UTC 2017-12-05T02:42:19Z
    Writing application                      : mkvmerge v15.0.0 ('Duel with the Devil') 64-bit
    Writing library                          : libebml v1.3.5 + libmatroska v1.4.5 / Lavf57.7.2

    Video
    ID                                       : 1
    Format                                   : AVC
    Format/Info                              : Advanced Video Codec
    Format profile                           : [email protected]
    Format settings                          : CABAC / 4 Ref Frames
    Format settings, CABAC                   : Yes
    Format settings, RefFrames               : 4 frames
    Codec ID                                 : V_MPEG4/ISO/AVC
    Duration                                 : 1 h 46 min
    Bit rate                                 : 3 253 kb/s
    Nominal bit rate                         : 3 500 kb/s
    Width                                    : 1 920 pixels
    Height                                   : 1 080 pixels
    Display aspect ratio                     : 16:9
    Frame rate mode                          : Constant
    Frame rate                               : 23.976 (24000/1001) FPS
    Color space                              : YUV
    Chroma subsampling                       : 4:2:0
    Bit depth                                : 8 bits
    Scan type                                : Progressive
    Bits/(Pixel*Frame)                       : 0.065
    Stream size                              : 2.42 GiB (79%)
    Title                                    : Dunkirk (2017) IMAX 1080p Latino
    Writing library                          : x264 core 148 r2708 86b7198
    Encoding settings                        : cabac=1 / ref=4 / deblock=1:0:0 / analyse=0x3:0x113 / me=umh / subme=8 / psy=1 / psy_rd=1.00:0.00 / mixed_ref=1 / me_range=16 / chroma_me=1 / trellis=1 / 8x8dct=1 / cqm=0 / deadzone=21,11 / fast_pskip=1 / chroma_qp_offset=-2 / threads=34 / lookahead_threads=5 / sliced_threads=0 / nr=0 / decimate=1 / interlaced=0 / bluray_compat=0 / constrained_intra=0 / bframes=3 / b_pyramid=2 / b_adapt=2 / b_bias=0 / direct=3 / weightb=1 / open_gop=0 / weightp=2 / keyint=240 / keyint_min=24 / scenecut=40 / intra_refresh=0 / rc_lookahead=50 / rc=abr / mbtree=1 / bitrate=3500 / ratetol=1.0 / qcomp=0.60 / qpmin=0 / qpmax=69 / qpstep=4 / vbv_maxrate=62500 / vbv_bufsize=78125 / nal_hrd=none / filler=0 / ip_ratio=1.40 / aq=1:1.00
    Language                                 : English
    Default                                  : Yes
    Forced                                   : No
    Color range                              : Limited
    Color primaries                          : BT.709
    Transfer characteristics                 : BT.709
    Matrix coefficients                      : BT.709
    Statistics Tags Issue                    : mkvmerge v15.0.0 ('Duel with the Devil') 64-bit 2017-12-05 03:41:25 / mkvmerge v15.0.0 ('Duel with the Devil') 64-bit 2017-12-05 03:41:25 / UTC 2017-12-05T02:42:19Z
    FromStats_BitRate                        : 3332978
    FromStats_Duration                       : 01:46:38.267000000
    FromStats_FrameCount                     : 153405
    FromStats_StreamSize                     : 2665660501

    Audio #1
    ID                                       : 2
    Format                                   : AC-3
    Format/Info                              : Audio Coding 3
    Format settings, Endianness              : Big
    Codec ID                                 : A_AC3
    Duration                                 : 1 h 46 min
    Bit rate mode                            : Constant
    Bit rate                                 : 384 kb/s
    Channel(s)                               : 6 channels
    Channel positions                        : Front: L C R, Side: L R, LFE
    Sampling rate                            : 48.0 kHz
    Frame rate                               : 31.250 FPS (1536 SPF)
    Bit depth                                : 16 bits
    Compression mode                         : Lossy
    Delay relative to video                  : -5 ms
    Stream size                              : 293 MiB (9%)
    Language                                 : Spanish
    Service kind                             : Complete Main
    Default                                  : Yes
    Forced                                   : No
    Statistics Tags Issue                    : mkvmerge v15.0.0 ('Duel with the Devil') 64-bit 2017-12-05 03:41:25 / mkvmerge v15.0.0 ('Duel with the Devil') 64-bit 2017-12-05 03:41:25 / UTC 2017-12-05T02:42:19Z
    FromStats_BitRate                        : 384000
    FromStats_Duration                       : 01:46:37.728000000
    FromStats_FrameCount                     : 199929
    FromStats_StreamSize                     : 307090944

    Audio #2
    ID                                       : 3
    Format                                   : AC-3
    Format/Info                              : Audio Coding 3
    Format settings, Endianness              : Big
    Codec ID                                 : A_AC3
    Duration                                 : 1 h 46 min
    Bit rate mode                            : Constant
    Bit rate                                 : 384 kb/s
    Channel(s)                               : 6 channels
    Channel positions                        : Front: L C R, Side: L R, LFE
    Sampling rate                            : 48.0 kHz
    Frame rate                               : 31.250 FPS (1536 SPF)
    Bit depth                                : 16 bits
    Compression mode                         : Lossy
    Delay relative to video                  : -5 ms
    Stream size                              : 293 MiB (9%)
    Title                                    : Surround
    Language                                 : English
    Service kind                             : Complete Main
    Default                                  : No
    Forced                                   : No
    Statistics Tags Issue                    : mkvmerge v15.0.0 ('Duel with the Devil') 64-bit 2017-12-05 03:41:25 / mkvmerge v15.0.0 ('Duel with the Devil') 64-bit 2017-12-05 03:41:25 / UTC 2017-12-05T02:42:19Z
    FromStats_BitRate                        : 384000
    FromStats_Duration                       : 01:46:38.240000000
    FromStats_FrameCount                     : 199945
    FromStats_StreamSize                     : 307115520

    Text
    ID                                       : 4
    Format                                   : UTF-8
    Codec ID                                 : S_TEXT/UTF8
    Codec ID/Info                            : UTF-8 Plain Text
    Language                                 : Spanish
    Default                                  : No
    Forced                                   : No
    Statistics Tags Issue                    : mkvmerge v15.0.0 ('Duel with the Devil') 64-bit 2017-12-05 03:41:25 / mkvmerge v15.0.0 ('Duel with the Devil') 64-bit 2017-12-05 03:41:25 / UTC 2017-12-05T02:42:19Z
    FromStats_BitRate                        : 24
    FromStats_Duration                       : 01:40:11.116000000
    FromStats_FrameCount                     : 711
    FromStats_StreamSize                     : 18472

    Menu
    00:00:00.000                             : :00:00:00.000
    00:08:51.364                             : :00:08:51.364
    00:20:13.879                             : :00:20:13.754
    00:29:07.621                             : :00:29:07.621
    00:42:35.261                             : :00:42:35.261
    00:52:48.207                             : :00:52:48.207
    01:04:32.827                             : :01:04:32.827
    01:12:50.825                             : :01:12:50.825
    01:25:55.025                             : :01:25:55.025
    01:33:23.348                             : :01:33:23.348
    01:39:14.031                             : :01:39:13.906

  • Peso: 3.06 GiB

Sinopsis

II Guerra Mundial. Cientos de miles de británicos y tropas aliadas están rodeados por las fuerzas enemigas. Atrapados en la playa con el mar a sus espaldas se enfrentan a una situación imposible mientras el enemigo se acerca. La película relata la Operación Dinamo, también conocida como el milagro de Dunkerque. Se trató de una operación de evacuación de las tropas aliadas en territorio francés, que tuvo lugar a finales de mayo de 1940. La operación permitió el rescate de más de 200.000 soldados británicos y más de 100.000 franceses y belgas.

 

Descargar Subtitulos Forzados http://www.subdivx.com/bajar.php?id=521007&u=8

Ficha técnica

Video trailer de la película

Enlaces de descarga

Rip de Bluray

Descargar Dunkirk (2017) IMAX 1080p Latino




Aportes de DPeliculasHDmega la pass es:dpeliculashdmega.org Aportes de CinemaniaHD la pass es:eatsouthward.com
Guardado en : Acción , Drama , Guerra , Historia , Suspense

Películas relacionadas

  • A Ghost Story (2017) 1080p Latino

    2017
    A Ghost Story (2017) 1080p Latino

    0.0 1h 27m 2017

    Un hombre recientemente fallecido regresa a su casa como un fantasma vestido con una sábana blanca para...

    Director: David Lowery

    Género: Drama

    Actores: Yasmina Gutierrez

  • Bushwick (2017) 1080p Latino

    2017
    Bushwick (2017) 1080p Latino

    5.0 1h 34m 2017

    Cuando Lucy sale del metro en Bushwick, el último barrio de moda de Nueva York, no encuentra ni hipsters...

    Director: Jonathan Milott

    Género: Acción

    Actores: Myra Lucretia Taylor

  • Gun shy (2017) 1080p Latino

    2017
    Gun shy (2017) 1080p Latino

    0.0 1h 31m 2017

    Basada en la novela homónima de Mark Haskell Smith. Turk Henry es una antigua estrella de rock con sobrepeso...

    Director: Simon West

    Género: Acción

    Actores: Sebastián Apiolaza

  • Deep Blue Sea 2 (2018) 1080p Latino

    2018
    Deep Blue Sea 2 (2018) 1080p Latino

    5.0 1h 34m 2018

    La Doctora Misty Calhoun, conservacionista de tiburones, es invitada para asesorar un proyecto secreto...

    Director: Darin Scott

    Género: Acción

    Actores: Rob Mayes

  • Maze Runner prueba de fuego (2015) Full 1080p Latino

    2015
    Maze Runner prueba de fuego (2015) Full 1080p Latino

    5.0 2 h 11 min 2015

    En este nuevo capítulo de la trepidante saga "El Corredor del Laberinto", Thomas (Dylan O'Brien) y el...

    Director: Wes Ball

    Género: Acción

    Actores: Thomas Brodie-Sangster

Comentarios 21
  • cuchareta - 08 diciembre, 2017

    tus links no sirven un carajo arreglalos

    • dpelis - 09 diciembre, 2017

      borrar cache, funcionan perfectos

  • lucas - 07 diciembre, 2017

    hola disculpa pero probe con las dos pass que dejaste y con ninguna de las dos me deja extraerlo.. gracias por los aportes

    • dpelis - 07 diciembre, 2017

      eatsouthward.com todo minuscula

  • Gabriel - 06 diciembre, 2017

    Gracias por la película, descargando!!!!

  • Ragnarok - 06 diciembre, 2017

    hola, disculpen solo queria saber si solo va a haber esta versión en 1080p Imax, o va a hacbr una versión full HD Imax? Saudos.

    • Dpelis2 - 06 diciembre, 2017

      En unos días mas sera publicada la versión Full 1080p IMAX

  • Cr jose - 06 diciembre, 2017

    Que tal amigos antes que nada agradecerle por todos sus aportes disculpen una pregunta habrá versión 3D ? De esta peli?

    • Dpelis2 - 06 diciembre, 2017

      Cuando se libere la versión 3D se publicara hasta el momento no a salido.

  • Chaka - 06 diciembre, 2017

    Gracias, al fin podré verla!!!

  • winzard - 05 diciembre, 2017

    cuando sale el audio 5.1Bluray latino

    • Dpelis2 - 05 diciembre, 2017

      Aproximadamente 5 dias

  • Logan - 05 diciembre, 2017

    Gracias bro .
    Ojalá y la puedan subir en 4h HDR para la colección
    Saludos

    • Dpelis2 - 05 diciembre, 2017

      Cuando se libere la versión 4K

  • Kevin - 05 diciembre, 2017

    Hola CinemaniaHDD quería saber cuando mas o menos estaría la versión plateada de la peli? Saludos

    • Dpelis2 - 05 diciembre, 2017

      En unos 5 dias o menos aproximadamente

  • Marco - 05 diciembre, 2017

    Hola amigos… primero dar gracias por todos los aportes, 😉 ahora al momento de descomprimir, me dice clave incorrecta,,, cual es la clave entonces.. muchas gracias..

    • Dpelis2 - 05 diciembre, 2017

      En los películas de ahora en Adelante es – eatsouthward.com – Saludos

      • Marco - 05 diciembre, 2017

        Muchas Gracias…. tremenda web… 🙂

      • jorge - 05 diciembre, 2017

        Que bien! recuperaron su dirección web original.
        Gracias por la peli amigos de eatsouthward.com sigan adelante

  • Kevin - 05 diciembre, 2017

    Excelente amigo!! La estaba esperando con ansias.. Sos la primer pagina de las que tengo de pelis que la sube!!

-->