Dulce venganza (2016) 1080p Latino

1.654 vistas
1 estrella2 estrellas3 estrellas4 estrellas5 estrellas (2 votos, promedio: 2,50 de 5)
Cargando…

Información de Dulce venganza (2016) 1080p Latino

Datos de la película

  • Calidad: 1080p
  • Audio: Español Latino AC3 2.0 Capturado - Ingles AC3 5.1 BLURAY
  • Subtitulos: Español Latino SRT
  • Resolución: 1920X804p
  • Formato: MKV
  • Codec: H.264
  • Encoder: Dracarys
  • Mediainfo: Clic para Mostrar Datos Ver
  • Format                                   : Matroska
    Format version                           : Version 4 / Version 2
    File size                                : 2.64 GiB
    Duration                                 : 1 h 34 min
    Overall bit rate                         : 3 990 kb/s
    Movie name                               : CinemaniaHDD.com
    Encoded date                             : UTC 2017-12-12 08:08:23 / UTC 2017-12-12T06:10:49Z
    Writing application                      : mkvmerge v15.0.0 ('Duel with the Devil') 64-bit
    Writing library                          : libebml v1.3.5 + libmatroska v1.4.5 / Lavf57.7.2

    Video
    ID                                       : 1
    Format                                   : AVC
    Format/Info                              : Advanced Video Codec
    Format profile                           : [email protected]
    Format settings                          : CABAC / 5 Ref Frames
    Format settings, CABAC                   : Yes
    Format settings, RefFrames               : 5 frames
    Codec ID                                 : V_MPEG4/ISO/AVC
    Duration                                 : 1 h 34 min
    Bit rate                                 : 3 500 kb/s
    Width                                    : 1 920 pixels
    Height                                   : 804 pixels
    Display aspect ratio                     : 2.40:1
    Frame rate mode                          : Constant
    Frame rate                               : 23.976 (24000/1001) FPS
    Color space                              : YUV
    Chroma subsampling                       : 4:2:0
    Bit depth                                : 8 bits
    Scan type                                : Progressive
    Bits/(Pixel*Frame)                       : 0.095
    Stream size                              : 2.21 GiB (84%)
    Title                                    : Dulce venganza (2016) 1080p Latino
    Writing library                          : x264 core 148 r2708 86b7198
    Encoding settings                        : cabac=1 / ref=5 / deblock=1:0:0 / analyse=0x3:0x113 / me=umh / subme=8 / psy=1 / psy_rd=1.00:0.00 / mixed_ref=1 / me_range=16 / chroma_me=1 / trellis=1 / 8x8dct=1 / cqm=0 / deadzone=21,11 / fast_pskip=1 / chroma_qp_offset=-2 / threads=25 / lookahead_threads=4 / sliced_threads=0 / nr=0 / decimate=1 / interlaced=0 / bluray_compat=0 / constrained_intra=0 / bframes=3 / b_pyramid=2 / b_adapt=2 / b_bias=0 / direct=3 / weightb=1 / open_gop=0 / weightp=2 / keyint=240 / keyint_min=24 / scenecut=40 / intra_refresh=0 / rc_lookahead=50 / rc=abr / mbtree=1 / bitrate=3500 / ratetol=1.0 / qcomp=0.60 / qpmin=0 / qpmax=69 / qpstep=4 / vbv_maxrate=62500 / vbv_bufsize=78125 / nal_hrd=none / filler=0 / ip_ratio=1.40 / aq=1:1.00
    Language                                 : English
    Default                                  : Yes
    Forced                                   : No
    Color range                              : Limited
    Color primaries                          : BT.709
    Transfer characteristics                 : BT.709
    Matrix coefficients                      : BT.709
    Statistics Tags Issue                    : mkvmerge v15.0.0 ('Duel with the Devil') 64-bit 2017-12-12 08:08:23 / mkvmerge v15.0.0 ('Duel with the Devil') 64-bit 2017-12-12 08:08:23 / UTC 2017-12-12T06:10:49Z
    FromStats_BitRate                        : 3411873
    FromStats_Duration                       : 01:34:50.727000000
    FromStats_FrameCount                     : 136441
    FromStats_StreamSize                     : 2427005388

    Audio #1
    ID                                       : 2
    Format                                   : AC-3
    Format/Info                              : Audio Coding 3
    Format settings, Endianness              : Big
    Codec ID                                 : A_AC3
    Duration                                 : 1 h 34 min
    Bit rate mode                            : Constant
    Bit rate                                 : 192 kb/s
    Channel(s)                               : 2 channels
    Channel positions                        : Front: L R
    Sampling rate                            : 48.0 kHz
    Frame rate                               : 31.250 FPS (1536 SPF)
    Bit depth                                : 16 bits
    Compression mode                         : Lossy
    Delay relative to video                  : 3 ms
    Stream size                              : 130 MiB (5%)
    Language                                 : Spanish
    Service kind                             : Complete Main
    Default                                  : Yes
    Forced                                   : No
    Statistics Tags Issue                    : mkvmerge v15.0.0 ('Duel with the Devil') 64-bit 2017-12-12 08:08:23 / mkvmerge v15.0.0 ('Duel with the Devil') 64-bit 2017-12-12 08:08:23 / UTC 2017-12-12T06:10:49Z
    FromStats_BitRate                        : 192000
    FromStats_Duration                       : 01:34:50.400000000
    FromStats_FrameCount                     : 177825
    FromStats_StreamSize                     : 136569600

    Audio #2
    ID                                       : 3
    Format                                   : AC-3
    Format/Info                              : Audio Coding 3
    Format settings, Endianness              : Big
    Codec ID                                 : A_AC3
    Duration                                 : 1 h 34 min
    Bit rate mode                            : Constant
    Bit rate                                 : 384 kb/s
    Channel(s)                               : 6 channels
    Channel positions                        : Front: L C R, Side: L R, LFE
    Sampling rate                            : 48.0 kHz
    Frame rate                               : 31.250 FPS (1536 SPF)
    Bit depth                                : 16 bits
    Compression mode                         : Lossy
    Delay relative to video                  : -5 ms
    Stream size                              : 261 MiB (10%)
    Language                                 : English
    Service kind                             : Complete Main
    Default                                  : No
    Forced                                   : No
    Statistics Tags Issue                    : mkvmerge v15.0.0 ('Duel with the Devil') 64-bit 2017-12-12 08:08:23 / mkvmerge v15.0.0 ('Duel with the Devil') 64-bit 2017-12-12 08:08:23 / UTC 2017-12-12T06:10:49Z
    FromStats_BitRate                        : 384000
    FromStats_Duration                       : 01:34:50.624000000
    FromStats_FrameCount                     : 177832
    FromStats_StreamSize                     : 273149952

    Text
    ID                                       : 4
    Format                                   : UTF-8
    Codec ID                                 : S_TEXT/UTF8
    Codec ID/Info                            : UTF-8 Plain Text
    Language                                 : Spanish
    Default                                  : Yes
    Forced                                   : No
    Statistics Tags Issue                    : mkvmerge v15.0.0 ('Duel with the Devil') 64-bit 2017-12-12 08:08:23 / mkvmerge v15.0.0 ('Duel with the Devil') 64-bit 2017-12-12 08:08:23 / UTC 2017-12-12T06:10:49Z
    FromStats_BitRate                        : 59
    FromStats_Duration                       : 01:29:36.216000000
    FromStats_FrameCount                     : 1086
    FromStats_StreamSize                     : 39880

    Menu
    00:00:00.000                             : :00:00:00.000
    00:06:06.074                             : :00:06:05.865
    00:13:09.372                             : :00:13:09.247
    00:18:48.252                             : :00:18:48.210
    00:24:14.578                             : :00:24:14.578
    00:30:49.348                             : :00:30:49.347
    00:36:29.270                             : :00:36:29.229
    00:41:31.531                             : :00:41:31.364
    00:48:11.847                             : :00:48:11.847
    00:54:17.838                             : :00:54:17.796
    01:00:20.033                             : :01:00:19.866
    01:04:19.481                             : :01:04:19.355
    01:09:47.809                             : :01:09:47.683
    01:17:38.737                             : :01:17:38.737
    01:25:05.892                             : :01:25:05.600
    01:30:51.780                             : :01:30:51.446

  • Peso: 2.64 GiB

Sinopsis

Un asesino de élite llamado Frank, tras ser traicionado por unos gángsters, es enviado a una cirujana llamada “El Doctor” que le convierte en una mujer. Ahora, reconvertida con otra identidad pero con su genética de asesina implacable, buscará la venganza ayudado por Johnnie, una enfermera que también oculta sus propios secretos

Ficha técnica

Video trailer de la película

Enlaces de descarga

Rip de Bluray

Descargar Dulce venganza (2016) 1080p Latino




Aportes de DPeliculasHDmega la pass es:dpeliculashdmega.org Aportes de CinemaniaHD la pass es:eatsouthward.com
Guardado en : Acción , Crimen , Suspense

Películas relacionadas

  • Ash vs. Evil Dead (2017) Temporada 3 WEBDL Latino

    2015
    Ash vs. Evil Dead (2017) Temporada 3 WEBDL Latino

    5.0 0h 43m 2015

    Esta temporada 3 seguirá, por tanto, contando con la participación de Lucy Lawless en el papel de la...

    Director: Sam Raimi

    Género: Acción

    Actores: Ray Santiago

  • El caza recompensas (2010) Full 1080p Latino

    2010
    El caza recompensas (2010) Full 1080p Latino

    5.0 1 h 50 min 2010

    Milo Boyd (Gerard Butler) es un cazarrecompensas que está viviendo una mala racha, cuando le asignan...

    Director: Andy Tennant

    Género: Acción

    Actores: Siobhan Fallon

  • Winchester (2018) 1080p Subtitulado

    2018
    Winchester (2018) 1080p Subtitulado

    0.0 1h 39m 2018

    A finales del siglo XIX, después de la trágica muerte de su marido y su hijo, Sarah construye una casa-fortaleza...

    Director: Peter Spierig

    Género: Fantasía

    Actores: Xavier Gouault

  • The Debt Collector (2018) 1080p latino

    2018
    The Debt Collector (2018) 1080p latino

    5.0 0h 0m 2018

    Un artista marcial, recien graduado (Adkins) consigue un trabajo como cobrador de deudas para la mafia....

    Director: Jesse V. Johnson

    Género: Acción

    Actores: Tony Todd

Comentarios 1
  • John - 19 diciembre, 2017

    El pass no es correcto favor tu apoyo

-->