Dos mulas para la hermana Sara (1970) Full 1080p Latino

659 vistas
1 estrella2 estrellas3 estrellas4 estrellas5 estrellas (2 votos, promedio: 5,00 de 5)
Cargando…

Información de Dos mulas para la hermana Sara (1970) Full 1080p Latino

Datos de la película

  • Calidad: Full 1080p
  • Audio: Español Latino DTS 2.0 BLURAY - Ingles DTS 2.0 BLURAY
  • Subtitulos: Español Latino PGS - Ingles PGS
  • Resolución: 1920x1080p
  • Formato: MKV
  • Codec: H.264
  • Encoder: Dracarys
  • Mediainfo: Clic para Mostrar Datos Ver
  • Format                                   : Matroska
    Format version                           : Version 4 / Version 2
    File size                                : 8.24 GiB
    Duration                                 : 1 h 53 min
    Overall bit rate                         : 10.4 Mb/s
    Movie name                               : CinemaniaHDD.com
    Encoded date                             : UTC 2018-04-04 04:47:02 / UTC 2018-03-31T11:12:26Z
    Writing application                      : mkvmerge v15.0.0 ('Duel with the Devil') 64-bit
    Writing library                          : libebml v1.3.5 + libmatroska v1.4.5 / Lavf57.7.2

    Video
    ID                                       : 1
    Format                                   : AVC
    Format/Info                              : Advanced Video Codec
    Format profile                           : [email protected]
    Format settings                          : CABAC / 4 Ref Frames
    Format settings, CABAC                   : Yes
    Format settings, RefFrames               : 4 frames
    Codec ID                                 : V_MPEG4/ISO/AVC
    Duration                                 : 1 h 53 min
    Bit rate                                 : 8 219 kb/s
    Width                                    : 1 920 pixels
    Height                                   : 1 080 pixels
    Display aspect ratio                     : 16:9
    Frame rate mode                          : Constant
    Frame rate                               : 23.976 (24000/1001) FPS
    Color space                              : YUV
    Chroma subsampling                       : 4:2:0
    Bit depth                                : 8 bits
    Scan type                                : Progressive
    Bits/(Pixel*Frame)                       : 0.165
    Stream size                              : 6.53 GiB (79%)
    Title                                    : Dos mulas para la hermana Sara (1970) Full 1080p Latino
    Writing library                          : x264 core 148 r2708 86b7198
    Encoding settings                        : cabac=1 / ref=4 / deblock=1:0:0 / analyse=0x3:0x133 / me=esa / subme=9 / psy=1 / psy_rd=1.00:0.00 / mixed_ref=1 / me_range=16 / chroma_me=1 / trellis=2 / 8x8dct=1 / cqm=0 / deadzone=21,11 / fast_pskip=1 / chroma_qp_offset=-2 / threads=34 / lookahead_threads=2 / sliced_threads=0 / nr=0 / decimate=1 / interlaced=0 / bluray_compat=0 / constrained_intra=0 / bframes=3 / b_pyramid=2 / b_adapt=2 / b_bias=0 / direct=3 / weightb=1 / open_gop=0 / weightp=2 / keyint=240 / keyint_min=24 / scenecut=40 / intra_refresh=0 / rc_lookahead=60 / rc=crf / mbtree=1 / crf=20.0 / qcomp=0.60 / qpmin=0 / qpmax=69 / qpstep=4 / vbv_maxrate=62500 / vbv_bufsize=78125 / crf_max=0.0 / nal_hrd=none / filler=0 / ip_ratio=1.40 / aq=1:1.00
    Language                                 : English
    Default                                  : Yes
    Forced                                   : No
    Color range                              : Limited
    Color primaries                          : BT.709
    Transfer characteristics                 : BT.709
    Matrix coefficients                      : BT.709
    Statistics Tags Issue                    : mkvmerge v15.0.0 ('Duel with the Devil') 64-bit 2018-04-04 04:47:02 / mkvmerge v15.0.0 ('Duel with the Devil') 64-bit 2018-04-04 04:47:02 / UTC 2018-03-31T11:12:26Z
    FromStats_BitRate                        : 8404946
    FromStats_Duration                       : 01:53:40.230000000
    FromStats_FrameCount                     : 163522
    FromStats_StreamSize                     : 7165458489

    Audio #1
    ID                                       : 2
    Format                                   : DTS
    Format/Info                              : Digital Theater Systems
    Mode                                     : 16
    Format settings, Endianness              : Big
    Codec ID                                 : A_DTS
    Duration                                 : 1 h 53 min
    Bit rate mode                            : Constant
    Bit rate                                 : 447 kb/s
    Channel(s)                               : 2 channels
    Channel positions                        : Front: L R
    Sampling rate                            : 48.0 kHz
    Frame rate                               : 93.750 FPS (512 SPF)
    Bit depth                                : 24 bits
    Compression mode                         : Lossy
    Stream size                              : 363 MiB (4%)
    Language                                 : Spanish
    Default                                  : Yes
    Forced                                   : No
    Statistics Tags Issue                    : mkvmerge v15.0.0 ('Duel with the Devil') 64-bit 2018-04-04 04:47:02 / mkvmerge v15.0.0 ('Duel with the Devil') 64-bit 2018-04-04 04:47:02 / UTC 2018-03-31T11:12:26Z
    FromStats_BitRate                        : 447000
    FromStats_Duration                       : 01:53:40.224000000
    FromStats_FrameCount                     : 639396
    FromStats_StreamSize                     : 381080016

    Audio #2
    ID                                       : 3
    Format                                   : DTS
    Format/Info                              : Digital Theater Systems
    Mode                                     : 16
    Format settings, Endianness              : Big
    Codec ID                                 : A_DTS
    Duration                                 : 1 h 53 min
    Bit rate mode                            : Constant
    Bit rate                                 : 1 509 kb/s
    Channel(s)                               : 2 channels
    Channel positions                        : Front: L R
    Sampling rate                            : 48.0 kHz
    Frame rate                               : 93.750 FPS (512 SPF)
    Bit depth                                : 24 bits
    Compression mode                         : Lossy
    Stream size                              : 1.20 GiB (15%)
    Language                                 : English
    Default                                  : No
    Forced                                   : No
    Statistics Tags Issue                    : mkvmerge v15.0.0 ('Duel with the Devil') 64-bit 2018-04-04 04:47:02 / mkvmerge v15.0.0 ('Duel with the Devil') 64-bit 2018-04-04 04:47:02 / UTC 2018-03-31T11:12:26Z
    FromStats_BitRate                        : 1509000
    FromStats_Duration                       : 01:53:40.224000000
    FromStats_FrameCount                     : 639396
    FromStats_StreamSize                     : 1286464752

    Text #1
    ID                                       : 4
    Format                                   : PGS
    Muxing mode                              : zlib
    Codec ID                                 : S_HDMV/PGS
    Codec ID/Info                            : Picture based subtitle format used on BDs/HD-DVDs
    Language                                 : English
    Default                                  : No
    Forced                                   : No
    Statistics Tags Issue                    : mkvmerge v15.0.0 ('Duel with the Devil') 64-bit 2018-04-04 04:47:02 / mkvmerge v15.0.0 ('Duel with the Devil') 64-bit 2018-04-04 04:47:02 / UTC 2018-03-31T11:12:26Z
    FromStats_BitRate                        : 34807
    FromStats_Duration                       : 01:51:36.022000000
    FromStats_FrameCount                     : 2616
    FromStats_StreamSize                     : 29134121

    Text #2
    ID                                       : 5
    Format                                   : PGS
    Muxing mode                              : zlib
    Codec ID                                 : S_HDMV/PGS
    Codec ID/Info                            : Picture based subtitle format used on BDs/HD-DVDs
    Language                                 : Spanish
    Default                                  : No
    Forced                                   : No
    Statistics Tags Issue                    : mkvmerge v15.0.0 ('Duel with the Devil') 64-bit 2018-04-04 04:47:02 / mkvmerge v15.0.0 ('Duel with the Devil') 64-bit 2018-04-04 04:47:02 / UTC 2018-03-31T11:12:26Z
    FromStats_BitRate                        : 28156
    FromStats_Duration                       : 01:48:14.905000000
    FromStats_FrameCount                     : 1891
    FromStats_StreamSize                     : 22859320

    Menu
    00:00:00.000                             : :Chapter 1
    00:04:01.992                             : :Chapter 2
    00:12:33.628                             : :Chapter 3
    00:16:00.668                             : :Chapter 4
    00:20:54.670                             : :Chapter 5
    00:26:23.040                             : :Chapter 6
    00:33:57.494                             : :Chapter 7
    00:39:50.179                             : :Chapter 8
    00:44:03.391                             : :Chapter 9
    00:46:39.880                             : :Chapter 10
    00:57:18.727                             : :Chapter 11
    01:05:43.731                             : :Chapter 12
    01:11:06.012                             : :Chapter 13
    01:24:24.434                             : :Chapter 14
    01:30:50.236                             : :Chapter 15
    01:37:45.526                             : :Chapter 16
    01:43:23.239                             : :Chapter 17
    01:51:01.613                             : :Chapter 18

  • Peso: 8.24 GiB

Sinopsis

En México ha estallado la guerra entre los seguidores de Juárez y las tropas francesas del emperador Maximiliano de Austria. Hogan (Clint Eastwood), un duro mercenario, salva a una monja (Shirley MacLaine) del ataque de unos malhechores. Juntos emprenden un accidentado viaje en el que, a pesar de sus diferencias, quedará de manifiesto que tienen mucho en común.

Ficha técnica

  • Titulo original: Two Mules for Sister Sara
  • Fecha de lanzamiento: 14-06-1970 (Mexico, United States of America)
  • Director: Don Siegel
  • Género: FULL 1080p Plateadas, Western
  • Puntuación: 5.0 2 votos
  • Duración:
    1h 56m

Video trailer de la película

Enlaces de descarga

Rip de Bluray

Descargar Dos mulas para la hermana Sara (1970) Full 1080p Latino




Aportes de DPeliculasHDmega la pass es:dpeliculashdmega.org Aportes de CinemaniaHD la pass es:eatsouthward.com
Guardado en : FULL 1080p Plateadas , Western

Películas relacionadas

  • Niños del hombre (2006) Full 1080p Latino

    2006
    Niños del hombre (2006) Full 1080p Latino

    0.0 1 h 49 min 2006

    Año 2027: el ser humano está al borde de la extinción: los hombres han perdido la capacidad de procrear...

    Director: Terry Needham

    Género: Acción

    Actores: Yolanda Vazquez

  • Para atrapar al ladrón (1955) Full 1080p Latino

    1955
    Para atrapar al ladrón (1955) Full 1080p Latino

    0.0 1h 46m 1955

    A pesar de que John Robie "El Gato" (Cary Grant) es un ladrón de joyas reformado, se convierte en el...

    Director: Alfred Hitchcock

    Género: Crimen

    Actores: William 'Wee Willie' Davis

  • Si decido quedarme (2014) Full 1080p Latino

    2014
    Si decido quedarme (2014) Full 1080p Latino

    5.0 1 h 46 min 2014

    Mia es una joven de 17 años que parece tenerlo todo en la vida: una famila adorable, un novio que la...

    Director: R.J. Cutler

    Género: Drama

    Actores: William C. Vaughan

  • Maze Runner prueba de fuego (2015) Full 1080p Latino

    2015
    Maze Runner prueba de fuego (2015) Full 1080p Latino

    5.0 2 h 11 min 2015

    En este nuevo capítulo de la trepidante saga "El Corredor del Laberinto", Thomas (Dylan O'Brien) y el...

    Director: Wes Ball

    Género: Acción

    Actores: Thomas Brodie-Sangster

Comentarios 0
-->