Diario De Una Pasión (2004) Full 1080p Latino

1.370 vistas
1 estrella2 estrellas3 estrellas4 estrellas5 estrellas (Ninguna valoración todavía)
Cargando…

Información de Diario De Una Pasión (2004) Full 1080p Latino

Datos de la película

  • Calidad: Full 1080p
  • Audio: Español Latino AC3 5.1 DVD - Ingles DTS 5.1 BLURAY
  • Subtitulos: Español Latino PGS - Ingles PGS
  • Resolución: 1920X1080p
  • Formato: MKV
  • Codec: H.264
  • Encoder: Dracarys
  • Mediainfo: Clic para Mostrar Datos Ver
  • Format                                   : Matroska
    Format version                           : Version 4 / Version 2
    File size                                : 5.40 GiB
    Duration                                 : 2 h 3 min
    Overall bit rate                         : 6 246 kb/s
    Movie name                               : CinemaniaHDD.com
    Encoded date                             : UTC 2017-12-10 03:55:52 / UTC 2017-12-04T11:51:41Z
    Writing application                      : mkvmerge v15.0.0 ('Duel with the Devil') 64-bit
    Writing library                          : libebml v1.3.5 + libmatroska v1.4.5 / Lavf57.7.2
    Attachments                              : cinema.png

    Video
    ID                                       : 1
    Format                                   : AVC
    Format/Info                              : Advanced Video Codec
    Format profile                           : [email protected]
    Format settings                          : CABAC / 4 Ref Frames
    Format settings, CABAC                   : Yes
    Format settings, RefFrames               : 4 frames
    Codec ID                                 : V_MPEG4/ISO/AVC
    Duration                                 : 2 h 3 min
    Bit rate                                 : 4 229 kb/s
    Width                                    : 1 920 pixels
    Height                                   : 1 080 pixels
    Display aspect ratio                     : 16:9
    Frame rate mode                          : Constant
    Frame rate                               : 23.976 (24000/1001) FPS
    Color space                              : YUV
    Chroma subsampling                       : 4:2:0
    Bit depth                                : 8 bits
    Scan type                                : Progressive
    Bits/(Pixel*Frame)                       : 0.085
    Stream size                              : 3.66 GiB (68%)
    Title                                    : Diario De Una Pasión (2004) Full 1080p Latino
    Writing library                          : x264 core 148 r2708 86b7198
    Encoding settings                        : cabac=1 / ref=4 / deblock=1:0:0 / analyse=0x3:0x133 / me=esa / subme=10 / psy=1 / psy_rd=1.00:0.00 / mixed_ref=1 / me_range=24 / chroma_me=1 / trellis=2 / 8x8dct=1 / cqm=0 / deadzone=21,11 / fast_pskip=1 / chroma_qp_offset=-2 / threads=34 / lookahead_threads=5 / sliced_threads=0 / nr=0 / decimate=1 / interlaced=0 / bluray_compat=0 / constrained_intra=0 / bframes=8 / b_pyramid=2 / b_adapt=2 / b_bias=0 / direct=3 / weightb=1 / open_gop=0 / weightp=2 / keyint=240 / keyint_min=24 / scenecut=40 / intra_refresh=0 / rc_lookahead=60 / rc=crf / mbtree=1 / crf=20.0 / qcomp=0.60 / qpmin=0 / qpmax=69 / qpstep=4 / vbv_maxrate=62500 / vbv_bufsize=78125 / crf_max=0.0 / nal_hrd=none / filler=0 / ip_ratio=1.40 / aq=1:1.00
    Default                                  : Yes
    Forced                                   : No
    Color range                              : Limited
    Color primaries                          : BT.709
    Transfer characteristics                 : BT.709
    Matrix coefficients                      : BT.709
    Statistics Tags Issue                    : mkvmerge v15.0.0 ('Duel with the Devil') 64-bit 2017-12-10 03:55:52 / mkvmerge v15.0.0 ('Duel with the Devil') 64-bit 2017-12-10 03:55:52 / UTC 2017-12-04T11:51:41Z
    FromStats_BitRate                        : 4323961
    FromStats_Duration                       : 02:03:48.964000000
    FromStats_FrameCount                     : 178117
    FromStats_StreamSize                     : 4015319211

    Audio #1
    ID                                       : 2
    Format                                   : AC-3
    Format/Info                              : Audio Coding 3
    Format settings, Endianness              : Big
    Codec ID                                 : A_AC3
    Duration                                 : 2 h 3 min
    Bit rate mode                            : Constant
    Bit rate                                 : 384 kb/s
    Channel(s)                               : 6 channels
    Channel positions                        : Front: L C R, Side: L R, LFE
    Sampling rate                            : 44.1 kHz
    Frame rate                               : 28.711 FPS (1536 SPF)
    Bit depth                                : 16 bits
    Compression mode                         : Lossy
    Delay relative to video                  : 1 s 0 ms
    Stream size                              : 340 MiB (6%)
    Title                                    : AC3-DVD
    Language                                 : Spanish
    Service kind                             : Complete Main
    Default                                  : Yes
    Forced                                   : No
    Statistics Tags Issue                    : mkvmerge v15.0.0 ('Duel with the Devil') 64-bit 2017-12-10 03:55:52 / mkvmerge v15.0.0 ('Duel with the Devil') 64-bit 2017-12-10 03:55:52 / UTC 2017-12-04T11:51:41Z
    FromStats_BitRate                        : 383999
    FromStats_Duration                       : 02:03:40.726000000
    FromStats_FrameCount                     : 213056
    FromStats_StreamSize                     : 356194846

    Audio #2
    ID                                       : 3
    Format                                   : DTS
    Format/Info                              : Digital Theater Systems
    Mode                                     : 16
    Format settings, Endianness              : Big
    Codec ID                                 : A_DTS
    Duration                                 : 2 h 3 min
    Bit rate mode                            : Constant
    Bit rate                                 : 1 509 kb/s
    Channel(s)                               : 6 channels
    Channel positions                        : Front: L C R, Side: L R, LFE
    Sampling rate                            : 48.0 kHz
    Frame rate                               : 93.750 FPS (512 SPF)
    Bit depth                                : 24 bits
    Compression mode                         : Lossy
    Stream size                              : 1.31 GiB (24%)
    Title                                    : DTS-Bluray
    Language                                 : English
    Default                                  : No
    Forced                                   : No
    Statistics Tags Issue                    : mkvmerge v15.0.0 ('Duel with the Devil') 64-bit 2017-12-10 03:55:52 / mkvmerge v15.0.0 ('Duel with the Devil') 64-bit 2017-12-10 03:55:52 / UTC 2017-12-04T11:51:41Z
    FromStats_BitRate                        : 1509000
    FromStats_Duration                       : 02:03:48.992000000
    FromStats_FrameCount                     : 696468
    FromStats_StreamSize                     : 1401293616

    Text #1
    ID                                       : 4
    Format                                   : PGS
    Muxing mode                              : zlib
    Codec ID                                 : S_HDMV/PGS
    Codec ID/Info                            : Picture based subtitle format used on BDs/HD-DVDs
    Language                                 : English
    Default                                  : No
    Forced                                   : No
    Statistics Tags Issue                    : mkvmerge v15.0.0 ('Duel with the Devil') 64-bit 2017-12-10 03:55:52 / mkvmerge v15.0.0 ('Duel with the Devil') 64-bit 2017-12-10 03:55:52 / UTC 2017-12-04T11:51:41Z
    FromStats_BitRate                        : 35384
    FromStats_Duration                       : 01:54:24.941000000
    FromStats_FrameCount                     : 3284
    FromStats_StreamSize                     : 30364075

    Text #2
    ID                                       : 5
    Format                                   : PGS
    Muxing mode                              : zlib
    Codec ID                                 : S_HDMV/PGS
    Codec ID/Info                            : Picture based subtitle format used on BDs/HD-DVDs
    Language                                 : Spanish
    Default                                  : No
    Forced                                   : No
    Statistics Tags Issue                    : mkvmerge v15.0.0 ('Duel with the Devil') 64-bit 2017-12-10 03:55:52 / mkvmerge v15.0.0 ('Duel with the Devil') 64-bit 2017-12-10 03:55:52 / UTC 2017-12-04T11:51:41Z
    FromStats_BitRate                        : 28651
    FromStats_Duration                       : 02:02:51.615000000
    FromStats_FrameCount                     : 3120
    FromStats_StreamSize                     : 26401070

    Menu
    00:00:00.000                             : :Chapter 1
    00:03:17.489                             : :Chapter 2
    00:05:08.683                             : :Chapter 3
    00:10:40.849                             : :Chapter 4
    00:19:12.985                             : :Chapter 5
    00:28:18.322                             : :Chapter 6
    00:36:51.084                             : :Chapter 7
    00:43:15.885                             : :Chapter 8
    00:54:04.408                             : :Chapter 9
    00:57:43.794                             : :Chapter 10
    01:01:35.734                             : :Chapter 11
    01:04:52.764                             : :Chapter 12
    01:15:15.511                             : :Chapter 13
    01:21:26.590                             : :Chapter 14
    01:25:21.199                             : :Chapter 15
    01:28:30.722                             : :Chapter 16
    01:35:35.313                             : :Chapter 17
    01:42:15.338                             : :Chapter 18
    01:51:18.672                             : :Chapter 19
    01:58:20.302                             : :Chapter 20

  • Peso: 5.40 GiB

Sinopsis

En una residencia de ancianos, un hombre mayor (James Garner) lee a una mujer (Gena Rowlands) una historia de amor escrita en su viejo libro de notas. El libro cuenta la vida en los años 40 de Noah Calhoun (Ryan Gosling) y Allie Nelson (Rachel McAdams), dos jóvenes adolescentes de Carolina del Norte que, a pesar de vivir en dos ambientes sociales muy diferentes, pasaron un verano idílico juntos y profundamente enamorados, antes de ser separados, primero por sus padres, y más tarde por la Segunda Guerra Mundial…

Ficha técnica

Video trailer de la película

Enlaces de descarga

Rip de Bluray

Descargar Diario De Una Pasión (2004) Full 1080p Latino




Aportes de DPeliculasHDmega la pass es:dpeliculashdmega.org Aportes de CinemaniaHD la pass es:eatsouthward.com

Películas relacionadas

  • Cincuenta sombras liberadas (2018) WEB-DL Latino

    2018
    Cincuenta sombras liberadas (2018) WEB-DL Latino

    0.0 1h 45m 2018

    Creyendo que han dejado atrás las sombras del pasado, los recién casados Christian y Anastasia disfrutan...

    Director: James Foley

    Género: Drama

    Actores: Tyler Hoechlin

  • Niños del hombre (2006) Full 1080p Latino

    2006
    Niños del hombre (2006) Full 1080p Latino

    0.0 1 h 49 min 2006

    Año 2027: el ser humano está al borde de la extinción: los hombres han perdido la capacidad de procrear...

    Director: Terry Needham

    Género: Acción

    Actores: Yolanda Vazquez

  • Amateur (2018) NF Webrip 1080p Latino

    2018
    Amateur (2018) NF Webrip 1080p Latino

    0.0 1h 36m 2018

    Un joven jugador de baloncesto se enfrenta a las dificultades de encajar en el nuevo equipo. Adaptación...

    Director: Ryan Koo

    Género: Drama

    Actores: Tekola Cornetet

  • Para atrapar al ladrón (1955) Full 1080p Latino

    1955
    Para atrapar al ladrón (1955) Full 1080p Latino

    0.0 1h 46m 1955

    A pesar de que John Robie "El Gato" (Cary Grant) es un ladrón de joyas reformado, se convierte en el...

    Director: Alfred Hitchcock

    Género: Crimen

    Actores: William 'Wee Willie' Davis

Comentarios 3
  • lily - 15 diciembre, 2017

    no me deja descomprimir me dice fichero vacio

    • Dpelis2 - 15 diciembre, 2017

      Eres el primero que tiene ese problema recuerda tener winrar ultima version

  • josue - 10 diciembre, 2017

    El de la otra pagina solo le faltaba un enlace, ahora si la voy a poder descargar, Gracias.

-->