Dean (2016) WEB-DL 1080p Latino

401 vistas
1 estrella2 estrellas3 estrellas4 estrellas5 estrellas (Ninguna valoración todavía)
Cargando…

Información de Dean (2016) WEB-DL 1080p Latino

Datos de la película

  • Calidad: WEBDL
  • Audio: Se especifica abajo de la Sinopsis
  • Subtitulos: Español Latino SRT
  • Resolución: 1908X792p
  • Formato: MKV
  • Codec: H.264
  • Encoder: Web-DL
  • Mediainfo: Clic para Mostrar Datos Ver
  • Format                                   : Matroska
    Format version                           : Version 4 / Version 2
    File size                                : 3.53 GiB
    Duration                                 : 1 h 33 min
    Overall bit rate                         : 5 396 kb/s
    Movie name                               : CinemaniaHDD.com
    Encoded date                             : UTC 2017-12-24 03:06:25
    Writing application                      : mkvmerge v15.0.0 ('Duel with the Devil') 64-bit
    Writing library                          : libebml v1.3.5 + libmatroska v1.4.5

    Video
    ID                                       : 1
    Format                                   : AVC
    Format/Info                              : Advanced Video Codec
    Format profile                           : [email protected]
    Format settings                          : CABAC / 5 Ref Frames
    Format settings, CABAC                   : Yes
    Format settings, RefFrames               : 5 frames
    Codec ID                                 : V_MPEG4/ISO/AVC
    Duration                                 : 1 h 33 min
    Bit rate                                 : 4 564 kb/s
    Width                                    : 1 908 pixels
    Height                                   : 792 pixels
    Display aspect ratio                     : 2.40:1
    Frame rate mode                          : Constant
    Frame rate                               : 23.976 (24000/1001) FPS
    Color space                              : YUV
    Chroma subsampling                       : 4:2:0
    Bit depth                                : 8 bits
    Scan type                                : Progressive
    Bits/(Pixel*Frame)                       : 0.126
    Stream size                              : 2.98 GiB (85%)
    Title                                    : Dean (2016) WEB-DL 1080p Latino
    Language                                 : English
    Default                                  : Yes
    Forced                                   : No
    Color range                              : Limited
    Color primaries                          : BT.709
    Transfer characteristics                 : BT.709
    Matrix coefficients                      : BT.709

    Audio #1
    ID                                       : 2
    Format                                   : AC-3
    Format/Info                              : Audio Coding 3
    Format settings, Endianness              : Big
    Codec ID                                 : A_AC3
    Duration                                 : 1 h 33 min
    Bit rate mode                            : Constant
    Bit rate                                 : 448 kb/s
    Channel(s)                               : 6 channels
    Channel positions                        : Front: L C R, Side: L R, LFE
    Sampling rate                            : 48.0 kHz
    Frame rate                               : 31.250 FPS (1536 SPF)
    Bit depth                                : 16 bits
    Compression mode                         : Lossy
    Delay relative to video                  : -30 ms
    Stream size                              : 300 MiB (8%)
    Language                                 : Spanish
    Service kind                             : Complete Main
    Default                                  : Yes
    Forced                                   : No

    Audio #2
    ID                                       : 3
    Format                                   : AC-3
    Format/Info                              : Audio Coding 3
    Format settings, Endianness              : Big
    Codec ID                                 : A_AC3
    Duration                                 : 1 h 33 min
    Bit rate mode                            : Constant
    Bit rate                                 : 384 kb/s
    Channel(s)                               : 6 channels
    Channel positions                        : Front: L C R, Side: L R, LFE
    Sampling rate                            : 48.0 kHz
    Frame rate                               : 31.250 FPS (1536 SPF)
    Bit depth                                : 16 bits
    Compression mode                         : Lossy
    Delay relative to video                  : -42 ms
    Stream size                              : 257 MiB (7%)
    Language                                 : English
    Service kind                             : Complete Main
    Default                                  : No
    Forced                                   : No

    Text #1
    ID                                       : 4
    Format                                   : UTF-8
    Codec ID                                 : S_TEXT/UTF8
    Codec ID/Info                            : UTF-8 Plain Text
    Duration                                 : 1 h 23 min
    Bit rate                                 : 84 b/s
    Count of elements                        : 1525
    Stream size                              : 52.1 KiB (0%)
    Language                                 : English
    Default                                  : No
    Forced                                   : No

    Text #2
    ID                                       : 5
    Format                                   : UTF-8
    Codec ID                                 : S_TEXT/UTF8
    Codec ID/Info                            : UTF-8 Plain Text
    Duration                                 : 1 h 27 min
    Bit rate                                 : 87 b/s
    Count of elements                        : 1525
    Stream size                              : 55.8 KiB (0%)
    Language                                 : Spanish
    Default                                  : No
    Forced                                   : No

    Menu
    00:00:00.000                             : en:1
    00:03:19.000                             : en:2
    00:12:38.000                             : en:3
    00:23:21.000                             : en:4
    00:34:47.000                             : en:5
    00:48:37.000                             : en:6
    00:59:06.000                             : en:7
    01:09:18.000                             : en:8
    01:20:13.000                             : en:9
    01:28:04.000                             : en:10

  • Peso: 3.53 GiB

Sinopsis

Dean (Demetri Martin) es un joven artista que se enfrenta a las incertidumbre propias de la edad adulta. Acaba de romper con su novia, y Dean observa cómo sus amigos progresan y maduran mientras él se siente estancado. Durante un viaje improvisado a Los Ángeles, conoce a Nicky (Gillian Jacobs), con la que siente que puede ser él mismo. Mientras tanto su padre (Kevin Kline) está siguiendo una trayectoria similar, sólo que en una etapa diferente en la vida. Acaba de conocer a una mujer (Mary Steenburgen) y por fin se siente dispuesto a comenzar algo con alguien desde la muerte de su esposa.

 

Audios: Latino AC3 5.1 DVD – Ingles AC3 5.1 Web DL

Ficha técnica

  • Titulo original: Dean
  • Fecha de lanzamiento: 02-06-2017 (United States of America)
  • Director: Demetri Martin
  • Género: Comedia
  • Puntuación: 0.0 0 votos
  • Duración:
    1 h 33 min

Video trailer de la película

Enlaces de descarga

Rip de Bluray

Descargar Dean (2016) WEB-DL 1080p Latino




Aportes de DPeliculasHDmega la pass es:dpeliculashdmega.org Aportes de CinemaniaHD la pass es:eatsouthward.com
Guardado en : Comedia

Películas relacionadas

  • Dude (2018) NF 1080p Latino

    2018
    Dude (2018) NF 1080p Latino

    5.0 1h 30m 2018

    Cuatro mejores amigas se tienen que enfrentar a su nueva vida. Las dos últimas semanas de instituto...

    Director: Olivia Milch

    Género: Comedia

    Actores: Sydney Lucas

  • Gun shy (2017) 1080p Latino

    2017
    Gun shy (2017) 1080p Latino

    0.0 1h 31m 2017

    Basada en la novela homónima de Mark Haskell Smith. Turk Henry es una antigua estrella de rock con sobrepeso...

    Director: Simon West

    Género: Acción

    Actores: Sebastián Apiolaza

  • Se dice de mí (2010) Full 1080p Latino

    2010
    Se dice de mí (2010) Full 1080p Latino

    5.0 1 h 32 min 2010

    El guión, obra del dramaturgo Bert V. Royal, es una versión moderna y en clave estudiantil de “La...

    Director: Will Sandoval

    Género: Comedia

    Actores: Zack Kennedy

  • Rebeldes con causa (2007) Full 1080p Latino

    2007
    Rebeldes con causa (2007) Full 1080p Latino

    5.0 1h 39m 2007

    Cuatro amigos de mediana edad (Travolta, Allen, Lawrence y H. Macy), entusiastas de las motos, deciden...

    Director: Walt Becker

    Género: Acción

    Actores: William H. Macy

Comentarios 0
-->