Creep 2 (2017) WEB-DL 1080p Latino

760 vistas
1 estrella2 estrellas3 estrellas4 estrellas5 estrellas (Ninguna valoración todavía)
Cargando…

Información de Creep 2 (2017) WEB-DL 1080p Latino

Datos de la película

  • Calidad: WEBDL
  • Audio: Español Latino AC3 5.1 Netflix - Ingles AC3 5.1 Netflix
  • Subtitulos: Español Latino SRT- FORZADOS SRT
  • Resolución: 1920X1080p
  • Formato: MKV
  • Codec: H.264
  • Encoder: WEB-DL
  • Mediainfo: Clic para Mostrar Datos Ver
  • Format                                   : Matroska
    Format version                           : Version 4 / Version 2
    File size                                : 3.23 GiB
    Duration                                 : 1 h 20 min
    Overall bit rate                         : 5 751 kb/s
    Movie name                               : CinemaniaHDD.com
    Encoded date                             : UTC 2017-12-23 21:15:26
    Writing application                      : mkvmerge v15.0.0 ('Duel with the Devil') 64-bit
    Writing library                          : libebml v1.3.5 + libmatroska v1.4.5

    Video
    ID                                       : 1
    Format                                   : AVC
    Format/Info                              : Advanced Video Codec
    Format profile                           : [email protected]
    Format settings                          : CABAC / 4 Ref Frames
    Format settings, CABAC                   : Yes
    Format settings, RefFrames               : 4 frames
    Codec ID                                 : V_MPEG4/ISO/AVC
    Duration                                 : 1 h 20 min
    Bit rate                                 : 5 193 kb/s
    Width                                    : 1 920 pixels
    Height                                   : 1 080 pixels
    Display aspect ratio                     : 16:9
    Frame rate mode                          : Constant
    Frame rate                               : 23.976 (23976/1000) FPS
    Color space                              : YUV
    Chroma subsampling                       : 4:2:0
    Bit depth                                : 8 bits
    Scan type                                : Progressive
    Bits/(Pixel*Frame)                       : 0.104
    Stream size                              : 2.90 GiB (90%)
    Title                                    : Creep 2 (2017) WEB-DL 1080p Latino
    Language                                 : English
    Default                                  : Yes
    Forced                                   : No
    Color range                              : Limited
    Color primaries                          : BT.709
    Transfer characteristics                 : BT.709
    Matrix coefficients                      : BT.709

    Audio #1
    ID                                       : 2
    Format                                   : E-AC-3
    Format/Info                              : Enhanced Audio Coding 3
    Format settings, Endianness              : Big
    Codec ID                                 : A_EAC3
    Duration                                 : 1 h 20 min
    Bit rate mode                            : Constant
    Bit rate                                 : 192 kb/s
    Channel(s)                               : 6 channels
    Channel positions                        : Front: L C R, Side: L R, LFE
    Sampling rate                            : 48.0 kHz
    Frame rate                               : 187.500 FPS (256 SPF)
    Compression mode                         : Lossy
    Delay relative to video                  : -42 ms
    Stream size                              : 110 MiB (3%)
    Language                                 : Spanish
    Service kind                             : Complete Main
    Default                                  : Yes
    Forced                                   : No

    Audio #2
    ID                                       : 3
    Format                                   : AC-3
    Format/Info                              : Audio Coding 3
    Format settings, Endianness              : Big
    Codec ID                                 : A_AC3
    Duration                                 : 1 h 20 min
    Bit rate mode                            : Constant
    Bit rate                                 : 384 kb/s
    Channel(s)                               : 6 channels
    Channel positions                        : Front: L C R, Side: L R, LFE
    Sampling rate                            : 48.0 kHz
    Frame rate                               : 31.250 FPS (1536 SPF)
    Bit depth                                : 16 bits
    Compression mode                         : Lossy
    Delay relative to video                  : -42 ms
    Stream size                              : 220 MiB (7%)
    Language                                 : English
    Service kind                             : Complete Main
    Default                                  : No
    Forced                                   : No

    Text #1
    ID                                       : 4
    Format                                   : UTF-8
    Codec ID                                 : S_TEXT/UTF8
    Codec ID/Info                            : UTF-8 Plain Text
    Duration                                 : 1 h 15 min
    Bit rate                                 : 0 b/s
    Count of elements                        : 21
    Stream size                              : 565 Bytes (0%)
    Title                                    : Forzados
    Language                                 : Spanish
    Default                                  : Yes
    Forced                                   : Yes

    Text #2
    ID                                       : 5
    Format                                   : UTF-8
    Codec ID                                 : S_TEXT/UTF8
    Codec ID/Info                            : UTF-8 Plain Text
    Duration                                 : 1 h 13 min
    Bit rate                                 : 59 b/s
    Count of elements                        : 1148
    Stream size                              : 32.0 KiB (0%)
    Language                                 : English
    Default                                  : No
    Forced                                   : No

    Text #3
    ID                                       : 6
    Format                                   : UTF-8
    Codec ID                                 : S_TEXT/UTF8
    Codec ID/Info                            : UTF-8 Plain Text
    Duration                                 : 1 h 18 min
    Bit rate                                 : 52 b/s
    Count of elements                        : 1036
    Stream size                              : 30.4 KiB (0%)
    Language                                 : Spanish
    Default                                  : No
    Forced                                   : No

    Menu
    00:00:00.000                             : en:Chapter One
    00:15:00.000                             : en:Chapter Two
    00:30:00.000                             : en:Chapter Three
    00:45:00.000                             : en:Chapter Four
    01:00:00.000                             : en:Chapter Five
    01:15:00.000                             : en:Chapter Six

  • Peso: 3.23 GiB

Sinopsis

En 2014, Creep nos presentó a Mark Duplass en la piel de un tipo solitario y un poco psicópata, pero, en cierto modo, entrañable. Para alegría de todos, este asesino mumblecore está de vuelta en la secuela de uno de los found footage más ingeniosos de las últimas temporadas, ahora planteando un asunto delicado: ¿qué ocurre cuando un serial killer pierde las ganas de matar?

Ficha técnica

  • Titulo original: Creep 2
  • Fecha de lanzamiento: 06-10-2017 (United States of America)
  • Director: Patrick Brice
  • Género: Suspense, Terror
  • Puntuación: 0.0 0 votos
  • Duración:
    1 h 20 min

Video trailer de la película

Enlaces de descarga

Rip de Bluray

Descargar Creep 2 (2017) WEB-DL 1080p Latino




Aportes de DPeliculasHDmega la pass es:dpeliculashdmega.org Aportes de CinemaniaHD la pass es:eatsouthward.com
Guardado en : Suspense , Terror

Películas relacionadas

  • Ash vs. Evil Dead (2017) Temporada 3 WEBDL Latino

    2015
    Ash vs. Evil Dead (2017) Temporada 3 WEBDL Latino

    5.0 0h 43m 2015

    Esta temporada 3 seguirá, por tanto, contando con la participación de Lucy Lawless en el papel de la...

    Director: Sam Raimi

    Género: Acción

    Actores: Ray Santiago

  • Winchester (2018) 1080p Subtitulado

    2018
    Winchester (2018) 1080p Subtitulado

    0.0 1h 39m 2018

    A finales del siglo XIX, después de la trágica muerte de su marido y su hijo, Sarah construye una casa-fortaleza...

    Director: Peter Spierig

    Género: Fantasía

    Actores: Xavier Gouault

  • Submergence (2018) 1080p Subtitulado

    2018
    Submergence (2018) 1080p Subtitulado

    0.0 1h 52m 2018

    James More (James McAvoy) es un ingeniero hidráulico que ha sido tomado como rehén en Somalia por los...

    Director: Wim Wenders

    Género: Drama

    Actores: Reda Kateb

Comentarios 0
-->