Conviction (2016) Primera Temporada WEB-DL 1080p Latino

382 vistas
1 estrella2 estrellas3 estrellas4 estrellas5 estrellas (Ninguna valoración todavía)
Cargando…

Información de Conviction (2016) Primera Temporada WEB-DL 1080p Latino

Datos de la película

  • Calidad: WEBDL
  • Audio: Se especifica abajo de la Sinopsis
  • Subtitulos: Español Latino SRT
  • Resolución: 1920X1080
  • Formato: MKV
  • Codec: H.264
  • Encoder: CinemaniaHDD
  • Mediainfo: Clic para Mostrar Datos Ver
  • Format                                   : Matroska
    Format version                           : Version 4 / Version 2
    File size                                : 2.73 GiB
    Duration                                 : 43 min 2 s
    Overall bit rate mode                    : Variable
    Overall bit rate                         : 9 079 kb/s
    Movie name                               : CinemaniaHDD.com
    Encoded date                             : UTC 2017-12-19 17:25:10
    Writing application                      : mkvmerge v15.0.0 ('Duel with the Devil') 64-bit
    Writing library                          : libebml v1.3.5 + libmatroska v1.4.5

    Video
    ID                                       : 1
    Format                                   : AVC
    Format/Info                              : Advanced Video Codec
    Format profile                           : [email protected]
    Format settings                          : CABAC / 4 Ref Frames
    Format settings, CABAC                   : Yes
    Format settings, RefFrames               : 4 frames
    Codec ID                                 : V_MPEG4/ISO/AVC
    Duration                                 : 43 min 2 s
    Bit rate mode                            : Variable
    Bit rate                                 : 8 245 kb/s
    Maximum bit rate                         : 15.0 Mb/s
    Width                                    : 1 920 pixels
    Height                                   : 1 080 pixels
    Display aspect ratio                     : 16:9
    Frame rate mode                          : Constant
    Frame rate                               : 23.976 (24000/1001) FPS
    Color space                              : YUV
    Chroma subsampling                       : 4:2:0
    Bit depth                                : 8 bits
    Scan type                                : Progressive
    Bits/(Pixel*Frame)                       : 0.166
    Stream size                              : 2.48 GiB (91%)
    Title                                    : Conviction (2016) Primera Temporada WEB-DL 1080p Latino
    Language                                 : English
    Default                                  : Yes
    Forced                                   : No
    Color range                              : Limited
    Color primaries                          : BT.709
    Transfer characteristics                 : BT.709
    Matrix coefficients                      : BT.709

    Audio #1
    ID                                       : 2
    Format                                   : AC-3
    Format/Info                              : Audio Coding 3
    Format settings, Endianness              : Big
    Codec ID                                 : A_AC3
    Duration                                 : 43 min 2 s
    Bit rate mode                            : Constant
    Bit rate                                 : 192 kb/s
    Channel(s)                               : 2 channels
    Channel positions                        : Front: L R
    Sampling rate                            : 48.0 kHz
    Frame rate                               : 31.250 FPS (1536 SPF)
    Bit depth                                : 16 bits
    Compression mode                         : Lossy
    Stream size                              : 59.1 MiB (2%)
    Language                                 : Spanish
    Service kind                             : Complete Main
    Default                                  : Yes
    Forced                                   : No

    Audio #2
    ID                                       : 3
    Format                                   : E-AC-3
    Format/Info                              : Enhanced Audio Coding 3
    Format settings, Endianness              : Big
    Codec ID                                 : A_EAC3
    Duration                                 : 43 min 2 s
    Bit rate mode                            : Constant
    Bit rate                                 : 640 kb/s
    Channel(s)                               : 6 channels
    Channel positions                        : Front: L C R, Side: L R, LFE
    Sampling rate                            : 48.0 kHz
    Frame rate                               : 187.500 FPS (256 SPF)
    Compression mode                         : Lossy
    Stream size                              : 197 MiB (7%)
    Language                                 : English
    Service kind                             : Complete Main
    Default                                  : No
    Forced                                   : No

    Text #1
    ID                                       : 4
    Format                                   : UTF-8
    Codec ID                                 : S_TEXT/UTF8
    Codec ID/Info                            : UTF-8 Plain Text
    Duration                                 : 42 min 19 s
    Bit rate                                 : 97 b/s
    Count of elements                        : 912
    Stream size                              : 30.2 KiB (0%)
    Language                                 : English
    Default                                  : No
    Forced                                   : No

    Text #2
    ID                                       : 5
    Format                                   : UTF-8
    Codec ID                                 : S_TEXT/UTF8
    Codec ID/Info                            : UTF-8 Plain Text
    Duration                                 : 41 min 28 s
    Bit rate                                 : 96 b/s
    Count of elements                        : 792
    Stream size                              : 29.4 KiB (0%)
    Language                                 : Spanish
    Default                                  : Yes
    Forced                                   : No

  • Peso: Aproximadamente 2.7 GiB X Capitulo 13 en Total

Sinopsis

Conviction cuenta la historia de Hayes Morrison, una brillante (y, sin embargo, buena para nada) joven abogada, hija de un ex presidente de los Estados Unidos. Hayes es chantajeada para liderar la nueva unidad destinada a revisar condenas erróneas. Morrison debe trabajar en este puesto bajo las órdenes de su antiguo (y sexy) némesis, el fiscal del distrito (Wayne Wallis) para evitar ir a la cárcel por posesión de cocaína y así no dañar la imagen de su madre, quien está en la carrera electoral por un puesto en el senado. Trabajando para Wayne y su equipo, Morrison usa su brillante intelecto para darle la vuelta a los casos en los que existe duda razonable sobre la condena. Esto también le permite empezar a cambiar las cosas con su poderosa familia.

 

Audios: Latino AC3 2.0 Fox Play – Ingles AC3 5.1 Amazon

Créditos Audio Latino y subtitulos: Rino

Ficha técnica

  • Titulo original: Conviction
  • Fecha de lanzamiento: 03-10-2016 (US)
  • Director: Liz Friedlander, Liz Friedman
  • Género: Drama
  • Puntuación: 0.0 0 votos
  • Duración:
    0h 42m

Video trailer de la película

Enlaces de descarga

Rip de Bluray

Descargar Conviction (2016) Primera Temporada WEB-DL 1080p Latino




Aportes de DPeliculasHDmega la pass es:dpeliculashdmega.org Aportes de CinemaniaHD la pass es:eatsouthward.com
Guardado en : Drama

Películas relacionadas

  • Niños del hombre (2006) Full 1080p Latino

    2006
    Niños del hombre (2006) Full 1080p Latino

    0.0 1 h 49 min 2006

    Año 2027: el ser humano está al borde de la extinción: los hombres han perdido la capacidad de procrear...

    Director: Terry Needham

    Género: Acción

    Actores: Yolanda Vazquez

  • Amateur (2018) NF Webrip 1080p Latino

    2018
    Amateur (2018) NF Webrip 1080p Latino

    0.0 1h 36m 2018

    Un joven jugador de baloncesto se enfrenta a las dificultades de encajar en el nuevo equipo. Adaptación...

    Director: Ryan Koo

    Género: Drama

    Actores: Tekola Cornetet

  • Para atrapar al ladrón (1955) Full 1080p Latino

    1955
    Para atrapar al ladrón (1955) Full 1080p Latino

    0.0 1h 46m 1955

    A pesar de que John Robie "El Gato" (Cary Grant) es un ladrón de joyas reformado, se convierte en el...

    Director: Alfred Hitchcock

    Género: Crimen

    Actores: William 'Wee Willie' Davis

  • Si decido quedarme (2014) Full 1080p Latino

    2014
    Si decido quedarme (2014) Full 1080p Latino

    5.0 1 h 46 min 2014

    Mia es una joven de 17 años que parece tenerlo todo en la vida: una famila adorable, un novio que la...

    Director: R.J. Cutler

    Género: Drama

    Actores: William C. Vaughan

  • A Ghost Story (2017) 1080p Latino

    2017
    A Ghost Story (2017) 1080p Latino

    5.0 1h 27m 2017

    Un hombre recientemente fallecido regresa a su casa como un fantasma vestido con una sábana blanca para...

    Director: David Lowery

    Género: Drama

    Actores: Yasmina Gutierrez

Comentarios 0
-->