Brimstone (2016) 1080p Latino

1.567 vistas
1 estrella2 estrellas3 estrellas4 estrellas5 estrellas (Ninguna valoración todavía)
Cargando…

Información de Brimstone (2016) 1080p Latino

Datos de la película

  • Calidad: 1080p
  • Audio: Español Latino AC3 2.0 Capturado - Ingles AC3 5.1 BLURAY
  • Subtitulos: Español Latino SRT
  • Resolución: 1920X804
  • Formato: MKV
  • Codec: H.264
  • Encoder: Dpelis
  • Mediainfo: Clic para Mostrar Datos Ver
  • Format                                   : Matroska
    Format version                           : Version 4 / Version 2
    File size                                : 4.13 GiB
    Duration                                 : 2 h 28 min
    Overall bit rate                         : 3 981 kb/s
    Movie name                               : dpeliculashdmega.org
    Encoded date                             : UTC 2017-12-02 20:00:50 / UTC 2017-12-02T02:03:25Z
    Writing application                      : mkvmerge v15.0.0 ('Duel with the Devil') 64-bit
    Writing library                          : libebml v1.3.5 + libmatroska v1.4.5 / Lavf57.7.2

    Video
    ID                                       : 1
    Format                                   : AVC
    Format/Info                              : Advanced Video Codec
    Format profile                           : [email protected]
    Format settings                          : CABAC / 5 Ref Frames
    Format settings, CABAC                   : Yes
    Format settings, RefFrames               : 5 frames
    Codec ID                                 : V_MPEG4/ISO/AVC
    Duration                                 : 2 h 28 min
    Bit rate                                 : 3 326 kb/s
    Nominal bit rate                         : 3 500 kb/s
    Width                                    : 1 920 pixels
    Height                                   : 804 pixels
    Display aspect ratio                     : 2.40:1
    Frame rate mode                          : Constant
    Frame rate                               : 23.976 (24000/1001) FPS
    Color space                              : YUV
    Chroma subsampling                       : 4:2:0
    Bit depth                                : 8 bits
    Scan type                                : Progressive
    Bits/(Pixel*Frame)                       : 0.090
    Stream size                              : 3.45 GiB (84%)
    Title                                    : Brimstone (2016) 1080p Latino
    Writing library                          : x264 core 148 r2708 86b7198
    Encoding settings                        : cabac=1 / ref=5 / deblock=1:0:0 / analyse=0x3:0x113 / me=umh / subme=8 / psy=1 / psy_rd=1.00:0.00 / mixed_ref=1 / me_range=16 / chroma_me=1 / trellis=1 / 8x8dct=1 / cqm=0 / deadzone=21,11 / fast_pskip=1 / chroma_qp_offset=-2 / threads=25 / lookahead_threads=4 / sliced_threads=0 / nr=0 / decimate=1 / interlaced=0 / bluray_compat=0 / constrained_intra=0 / bframes=3 / b_pyramid=2 / b_adapt=2 / b_bias=0 / direct=3 / weightb=1 / open_gop=0 / weightp=2 / keyint=240 / keyint_min=24 / scenecut=40 / intra_refresh=0 / rc_lookahead=50 / rc=abr / mbtree=1 / bitrate=3500 / ratetol=1.0 / qcomp=0.60 / qpmin=0 / qpmax=69 / qpstep=4 / vbv_maxrate=62500 / vbv_bufsize=78125 / nal_hrd=none / filler=0 / ip_ratio=1.40 / aq=1:1.00
    Language                                 : English
    Default                                  : Yes
    Forced                                   : No
    Color range                              : Limited
    Color primaries                          : BT.709
    Transfer characteristics                 : BT.709
    Matrix coefficients                      : BT.709
    Statistics Tags Issue                    : mkvmerge v15.0.0 ('Duel with the Devil') 64-bit 2017-12-02 20:00:50 / mkvmerge v15.0.0 ('Duel with the Devil') 64-bit 2017-12-02 20:00:50 / UTC 2017-12-02T02:03:25Z
    FromStats_BitRate                        : 3403064
    FromStats_Duration                       : 02:28:31.903000000
    FromStats_FrameCount                     : 213672
    FromStats_StreamSize                     : 3790973135

    Audio #1
    ID                                       : 2
    Format                                   : AC-3
    Format/Info                              : Audio Coding 3
    Format settings, Endianness              : Big
    Codec ID                                 : A_AC3
    Duration                                 : 2 h 28 min
    Bit rate mode                            : Constant
    Bit rate                                 : 192 kb/s
    Channel(s)                               : 2 channels
    Channel positions                        : Front: L R
    Sampling rate                            : 48.0 kHz
    Frame rate                               : 31.250 FPS (1536 SPF)
    Bit depth                                : 16 bits
    Compression mode                         : Lossy
    Delay relative to video                  : 195 ms
    Stream size                              : 204 MiB (5%)
    Title                                    : Latino-AC3
    Language                                 : Spanish
    Service kind                             : Complete Main
    Default                                  : Yes
    Forced                                   : Yes
    Statistics Tags Issue                    : mkvmerge v15.0.0 ('Duel with the Devil') 64-bit 2017-12-02 20:00:50 / mkvmerge v15.0.0 ('Duel with the Devil') 64-bit 2017-12-02 20:00:50 / UTC 2017-12-02T02:03:25Z
    FromStats_BitRate                        : 192000
    FromStats_Duration                       : 02:28:29.472000000
    FromStats_FrameCount                     : 278421
    FromStats_StreamSize                     : 213827328

    Audio #2
    ID                                       : 3
    Format                                   : AC-3
    Format/Info                              : Audio Coding 3
    Format settings, Endianness              : Big
    Codec ID                                 : A_AC3
    Duration                                 : 2 h 28 min
    Bit rate mode                            : Constant
    Bit rate                                 : 384 kb/s
    Channel(s)                               : 6 channels
    Channel positions                        : Front: L C R, Side: L R, LFE
    Sampling rate                            : 48.0 kHz
    Frame rate                               : 31.250 FPS (1536 SPF)
    Bit depth                                : 16 bits
    Compression mode                         : Lossy
    Delay relative to video                  : -5 ms
    Stream size                              : 408 MiB (10%)
    Title                                    : Ingles-AC3
    Language                                 : English
    Service kind                             : Complete Main
    Default                                  : No
    Forced                                   : No
    Statistics Tags Issue                    : mkvmerge v15.0.0 ('Duel with the Devil') 64-bit 2017-12-02 20:00:50 / mkvmerge v15.0.0 ('Duel with the Devil') 64-bit 2017-12-02 20:00:50 / UTC 2017-12-02T02:03:25Z
    FromStats_BitRate                        : 384000
    FromStats_Duration                       : 02:28:31.872000000
    FromStats_FrameCount                     : 278496
    FromStats_StreamSize                     : 427769856

    Text
    ID                                       : 4
    Format                                   : UTF-8
    Codec ID                                 : S_TEXT/UTF8
    Codec ID/Info                            : UTF-8 Plain Text
    Language                                 : Spanish
    Default                                  : Yes
    Forced                                   : No
    Statistics Tags Issue                    : mkvmerge v15.0.0 ('Duel with the Devil') 64-bit 2017-12-02 20:00:50 / mkvmerge v15.0.0 ('Duel with the Devil') 64-bit 2017-12-02 20:00:50 / UTC 2017-12-02T02:03:25Z
    FromStats_BitRate                        : 31
    FromStats_Duration                       : 02:18:49.603000000
    FromStats_FrameCount                     : 985
    FromStats_StreamSize                     : 32411

    Menu
    00:00:00.000                             : :00:00:00.000
    00:04:30.061                             : :00:04:29.853
    00:11:52.086                             : :00:11:51.920
    00:19:58.656                             : :00:19:58.489
    00:25:06.213                             : :00:25:06.213
    00:32:22.232                             : :00:32:22.190
    00:42:25.126                             : :00:42:25.042
    00:48:21.315                             : :00:48:21.148
    00:55:44.341                             : :00:55:44.341
    01:01:14.296                             : :01:01:14.254
    01:06:42.207                             : :01:06:42.040
    01:17:13.963                             : :01:17:13.963
    01:24:38.323                             : :01:24:38.156
    01:32:47.520                             : :01:32:47.312
    01:39:57.450                             : :01:39:57.241
    01:49:04.997                             : :01:49:04.788
    01:56:10.714                             : :01:56:10.630
    02:02:54.951                             : :02:02:54.867
    02:13:38.219                             : :02:13:38.177
    02:20:17.993                             : :02:20:17.909

  • Peso: 4.13 GiB

Sinopsis

Liz lleva una vida tranquila, pero cuando escuche el primer sermón del nuevo reverendo, la joven madre comprenderá que su paz ha terminado y que su pasado la ha alcanzado de nuevo. Comienza así un peregrinaje épico, lleno de sangre y sufrimiento. Dakota Fanning, Guy Pearce y Kit Harington (aka Jon Snow) protagonizan este American Gothic, en cuatro actos y con el mal pisando los talones.

Ficha técnica

  • Titulo original: Brimstone
  • Fecha de lanzamiento: 12-01-2017 (Belgium, France, Germany, Netherlands, Sweden, United Kingdom, United States of America)
  • Director: Els Rastelli, Martin Koolhoven
  • Género: Misterio, Suspense, Western
  • Puntuación: 0.0 0 votos
  • Duración:
    2h 28m

Video trailer de la película

Enlaces de descarga

Rip de Bluray

Descargar Brimstone (2016) 1080p Latino




Aportes de DPeliculasHDmega la pass es:dpeliculashdmega.org Aportes de CinemaniaHD la pass es:eatsouthward.com
Guardado en : Misterio , Suspense , Western

Películas relacionadas

  • Hostiles (2017) 1080p Subtitulado

    2017
    Hostiles (2017) 1080p Subtitulado

    0.0 2h 13m 2017

    El legendario capitán del ejército Joseph J. Blocker (Christian Bale) se compromete para acompañar...

    Director: Xanthus Valan

    Género: Aventura

    Actores: Xavier Horsechief

  • Winchester (2018) 1080p Subtitulado

    2018
    Winchester (2018) 1080p Subtitulado

    0.0 1h 39m 2018

    A finales del siglo XIX, después de la trágica muerte de su marido y su hijo, Sarah construye una casa-fortaleza...

    Director: Peter Spierig

    Género: Fantasía

    Actores: Xavier Gouault

  • Submergence (2018) 1080p Subtitulado

    2018
    Submergence (2018) 1080p Subtitulado

    0.0 1h 52m 2018

    James More (James McAvoy) es un ingeniero hidráulico que ha sido tomado como rehén en Somalia por los...

    Director: Wim Wenders

    Género: Drama

    Actores: Reda Kateb

  • Spinning Man (2018) 1080p WEB-DL Subtitulada

    2018
    Spinning Man (2018) 1080p WEB-DL Subtitulada

    0.0 1h 40m 2018

    Evan Birch (Guy Pearce) es un hombre de familia y un profesor querido en la universidad, donde su clase...

    Director: Simon Kaijser

    Género: Drama

    Actores: Siena D'Addario

Comentarios 2
  • Drako H - 20 enero, 2018

    Hola primero quiero decir felicitaciones por buenos aportes, son los mejores y queria preguntar si saldrá plateada de esta pelicula? no importa si tardara solo quiero saber si habra la plateada

    • dpelis - 21 enero, 2018

      si la subiremos

-->