Blade Trinity (2004) EXTENDED Full 1080p Latino

894 vistas
1 estrella2 estrellas3 estrellas4 estrellas5 estrellas (Ninguna valoración todavía)
Cargando…

Información de Blade Trinity (2004) EXTENDED Full 1080p Latino

Datos de la película

  • Calidad: Full 1080p
  • Audio: Español Latino AC3 2.0 DVD - Ingles DTS 5.1 BLURAY
  • Subtitulos: Español Latino PGS - Ingles PGS
  • Resolución: 1920x1080p
  • Formato: MKV
  • Codec: H.264
  • Encoder: Dracarys
  • Mediainfo: Clic para Mostrar Datos Ver
  • Format                                   : Matroska
    Format version                           : Version 4 / Version 2
    File size                                : 6.28 GiB
    Duration                                 : 2 h 2 min
    Overall bit rate                         : 7 345 kb/s
    Movie name                               : CinemaniaHDD.com
    Encoded date                             : UTC 2017-12-30 00:06:01 / UTC 2017-12-24T14:37:37Z
    Writing application                      : mkvmerge v15.0.0 ('Duel with the Devil') 64-bit
    Writing library                          : libebml v1.3.5 + libmatroska v1.4.5 / Lavf57.7.2

    Video
    ID                                       : 1
    Format                                   : AVC
    Format/Info                              : Advanced Video Codec
    Format profile                           : [email protected]
    Format settings                          : CABAC / 4 Ref Frames
    Format settings, CABAC                   : Yes
    Format settings, RefFrames               : 4 frames
    Codec ID                                 : V_MPEG4/ISO/AVC
    Duration                                 : 2 h 2 min
    Bit rate                                 : 5 498 kb/s
    Width                                    : 1 920 pixels
    Height                                   : 1 080 pixels
    Display aspect ratio                     : 16:9
    Frame rate mode                          : Constant
    Frame rate                               : 23.976 (24000/1001) FPS
    Color space                              : YUV
    Chroma subsampling                       : 4:2:0
    Bit depth                                : 8 bits
    Scan type                                : Progressive
    Bits/(Pixel*Frame)                       : 0.111
    Stream size                              : 4.70 GiB (75%)
    Title                                    : Blade Trinity (2004) EXTENDED Full 1080p Latino
    Writing library                          : x264 core 148 r2708 86b7198
    Encoding settings                        : cabac=1 / ref=4 / deblock=1:0:0 / analyse=0x3:0x133 / me=esa / subme=10 / psy=1 / psy_rd=1.00:0.00 / mixed_ref=1 / me_range=24 / chroma_me=1 / trellis=2 / 8x8dct=1 / cqm=0 / deadzone=21,11 / fast_pskip=1 / chroma_qp_offset=-2 / threads=34 / lookahead_threads=5 / sliced_threads=0 / nr=0 / decimate=1 / interlaced=0 / bluray_compat=0 / constrained_intra=0 / bframes=8 / b_pyramid=2 / b_adapt=2 / b_bias=0 / direct=3 / weightb=1 / open_gop=0 / weightp=2 / keyint=240 / keyint_min=24 / scenecut=40 / intra_refresh=0 / rc_lookahead=60 / rc=crf / mbtree=1 / crf=20.0 / qcomp=0.60 / qpmin=0 / qpmax=69 / qpstep=4 / vbv_maxrate=62500 / vbv_bufsize=78125 / crf_max=0.0 / nal_hrd=none / filler=0 / ip_ratio=1.40 / aq=1:1.00
    Default                                  : Yes
    Forced                                   : No
    Color range                              : Limited
    Color primaries                          : BT.709
    Transfer characteristics                 : BT.709
    Matrix coefficients                      : BT.709
    Statistics Tags Issue                    : mkvmerge v15.0.0 ('Duel with the Devil') 64-bit 2017-12-30 00:06:01 / mkvmerge v15.0.0 ('Duel with the Devil') 64-bit 2017-12-30 00:06:01 / UTC 2017-12-24T14:37:37Z
    FromStats_BitRate                        : 5623105
    FromStats_Duration                       : 02:02:21.334000000
    FromStats_FrameCount                     : 176016
    FromStats_StreamSize                     : 5160137290

    Audio #1
    ID                                       : 2
    Format                                   : AC-3
    Format/Info                              : Audio Coding 3
    Format settings, Endianness              : Big
    Codec ID                                 : A_AC3
    Duration                                 : 2 h 2 min
    Bit rate mode                            : Constant
    Bit rate                                 : 192 kb/s
    Channel(s)                               : 2 channels
    Channel positions                        : Front: L R
    Sampling rate                            : 48.0 kHz
    Frame rate                               : 31.250 FPS (1536 SPF)
    Bit depth                                : 16 bits
    Compression mode                         : Lossy
    Stream size                              : 168 MiB (3%)
    Language                                 : Spanish
    Service kind                             : Complete Main
    Default                                  : Yes
    Forced                                   : No
    Statistics Tags Issue                    : mkvmerge v15.0.0 ('Duel with the Devil') 64-bit 2017-12-30 00:06:01 / mkvmerge v15.0.0 ('Duel with the Devil') 64-bit 2017-12-30 00:06:01 / UTC 2017-12-24T14:37:37Z
    FromStats_BitRate                        : 192000
    FromStats_Duration                       : 02:02:18.752000000
    FromStats_FrameCount                     : 229336
    FromStats_StreamSize                     : 176130048

    Audio #2
    ID                                       : 3
    Format                                   : DTS
    Format/Info                              : Digital Theater Systems
    Format profile                           : ES Discrete / Core
    Mode                                     : 16
    Format settings, Endianness              : Big
    Codec ID                                 : A_DTS
    Duration                                 : 2 h 2 min
    Bit rate mode                            : Constant
    Bit rate                                 : 1 509 kb/s
    Channel(s)                               : 7 channels / 6 channels
    Channel positions                        : Front: L C R, Side: L R, Back: C, LFE / Front: L C R, Side: L R, LFE
    Sampling rate                            : 48.0 kHz
    Frame rate                               : 93.750 FPS (512 SPF)
    Bit depth                                : 24 bits
    Compression mode                         : Lossy
    Stream size                              : 1.29 GiB (21%)
    Language                                 : English
    Default                                  : No
    Forced                                   : No
    Statistics Tags Issue                    : mkvmerge v15.0.0 ('Duel with the Devil') 64-bit 2017-12-30 00:06:01 / mkvmerge v15.0.0 ('Duel with the Devil') 64-bit 2017-12-30 00:06:01 / UTC 2017-12-24T14:37:37Z
    FromStats_BitRate                        : 1508999
    FromStats_Duration                       : 02:02:21.366000000
    FromStats_FrameCount                     : 688253
    FromStats_StreamSize                     : 1384765036

    Text #1
    ID                                       : 4
    Format                                   : PGS
    Muxing mode                              : zlib
    Codec ID                                 : S_HDMV/PGS
    Codec ID/Info                            : Picture based subtitle format used on BDs/HD-DVDs
    Language                                 : Spanish
    Default                                  : No
    Forced                                   : No
    Statistics Tags Issue                    : mkvmerge v15.0.0 ('Duel with the Devil') 64-bit 2017-12-30 00:06:01 / mkvmerge v15.0.0 ('Duel with the Devil') 64-bit 2017-12-30 00:06:01 / UTC 2017-12-24T14:37:37Z
    FromStats_BitRate                        : 18789
    FromStats_Duration                       : 02:01:43.504000000
    FromStats_FrameCount                     : 1920
    FromStats_StreamSize                     : 17153927

    Text #2
    ID                                       : 5
    Format                                   : PGS
    Muxing mode                              : zlib
    Codec ID                                 : S_HDMV/PGS
    Codec ID/Info                            : Picture based subtitle format used on BDs/HD-DVDs
    Language                                 : English
    Default                                  : No
    Forced                                   : No
    Statistics Tags Issue                    : mkvmerge v15.0.0 ('Duel with the Devil') 64-bit 2017-12-30 00:06:01 / mkvmerge v15.0.0 ('Duel with the Devil') 64-bit 2017-12-30 00:06:01 / UTC 2017-12-24T14:37:37Z
    FromStats_BitRate                        : 21698
    FromStats_Duration                       : 02:01:43.504000000
    FromStats_FrameCount                     : 2328
    FromStats_StreamSize                     : 19809501

    Menu
    00:00:00.000                             : :Chapter 1
    00:06:47.407                             : :Chapter 2
    00:12:59.362                             : :Chapter 3
    00:17:16.077                             : :Chapter 4
    00:18:48.419                             : :Chapter 5
    00:22:48.284                             : :Chapter 6
    00:27:05.624                             : :Chapter 7
    00:34:22.894                             : :Chapter 8
    00:41:07.674                             : :Chapter 9
    00:45:40.905                             : :Chapter 10
    00:50:55.886                             : :Chapter 11
    00:54:10.748                             : :Chapter 12
    00:58:08.026                             : :Chapter 13
    01:08:05.164                             : :Chapter 14
    01:17:54.712                             : :Chapter 15
    01:21:59.915                             : :Chapter 16
    01:28:32.057                             : :Chapter 17
    01:33:30.230                             : :Chapter 18
    01:41:31.711                             : :Chapter 19
    01:46:13.158                             : :Chapter 20
    01:50:45.013                             : :Chapter 21
    01:53:51.992                             : :Chapter 22

     

  • Peso: 6.28 GiB

Sinopsis

Durante años, Blade ha luchado contra los vampiros sin que el mundo supiera lo que sucedía en los bajos fondos. Pero ahora, tras caer en las redes del FBI, se ve forzado a salir a la luz del día para unir sus fuerzas con un clan de humanos cazadores de vampiros que nunca supo que existían, los Nightstalkers. Junto a Abigail y Hannibal, Blade sigue la pista de una Antigua criatura que lo está acechando el vampiro original: Drácula.

Ficha técnica

Video trailer de la película

Enlaces de descarga

Rip de Bluray

Descargar Blade Trinity (2004) EXTENDED Full 1080p Latino




Aportes de DPeliculasHDmega la pass es:dpeliculashdmega.org Aportes de CinemaniaHD la pass es:eatsouthward.com

Películas relacionadas

  • A Ghost Story (2017) 1080p Latino

    2017
    A Ghost Story (2017) 1080p Latino

    0.0 1h 27m 2017

    Un hombre recientemente fallecido regresa a su casa como un fantasma vestido con una sábana blanca para...

    Director: David Lowery

    Género: Drama

    Actores: Yasmina Gutierrez

  • Bushwick (2017) 1080p Latino

    2017
    Bushwick (2017) 1080p Latino

    5.0 1h 34m 2017

    Cuando Lucy sale del metro en Bushwick, el último barrio de moda de Nueva York, no encuentra ni hipsters...

    Director: Jonathan Milott

    Género: Acción

    Actores: Myra Lucretia Taylor

  • Gun shy (2017) 1080p Latino

    2017
    Gun shy (2017) 1080p Latino

    0.0 1h 31m 2017

    Basada en la novela homónima de Mark Haskell Smith. Turk Henry es una antigua estrella de rock con sobrepeso...

    Director: Simon West

    Género: Acción

    Actores: Sebastián Apiolaza

  • Deep Blue Sea 2 (2018) 1080p Latino

    2018
    Deep Blue Sea 2 (2018) 1080p Latino

    5.0 1h 34m 2018

    La Doctora Misty Calhoun, conservacionista de tiburones, es invitada para asesorar un proyecto secreto...

    Director: Darin Scott

    Género: Acción

    Actores: Rob Mayes

  • Maze Runner prueba de fuego (2015) Full 1080p Latino

    2015
    Maze Runner prueba de fuego (2015) Full 1080p Latino

    5.0 2 h 11 min 2015

    En este nuevo capítulo de la trepidante saga "El Corredor del Laberinto", Thomas (Dylan O'Brien) y el...

    Director: Wes Ball

    Género: Acción

    Actores: Thomas Brodie-Sangster

Comentarios 5
  • jefferson - 11 febrero, 2018

    esta es la única de la saga que dice extendida, y mi consulta es, si por ser versión extendida salen esos cortes en idioma original o todo esta doblado en latino (incluido los cortes de versión extendida). Gracias.
    PSDT: la mejor pagina para descargar películas en excelente calidad.

    • Dracarys - 14 febrero, 2018

      todo en latino

  • josue - 30 diciembre, 2017

    Gracias por publicar la trilogia de blade, pero por que los audios latinos no estan en 5.1 como en la anterior pagina?

    • dpelis - 30 diciembre, 2017

      en la anterior creo q eran audios manipulados, fueron las primera q se publicaron en la pagina y el uploader convertia los audios. 1 y 2 son audios directo del bluray. lo cual no tiene 5.1

      • josue - 30 diciembre, 2017

        Ah. ok gracias solo tenia esa duda.

-->