Battleship (2012) 4K HDR Latino

789 vistas
1 estrella2 estrellas3 estrellas4 estrellas5 estrellas (Ninguna valoración todavía)
Cargando…

Información de Battleship (2012) 4K HDR Latino

Datos de la película

  • Calidad: 4K HDR
  • Audio: Se especifica abajo de la Sinopsis
  • Subtitulos: Español Latino PGS - Ingles PGS
  • Resolución: 3840x1600p
  • Formato: MKV
  • Codec: H.265
  • Encoder: Dracarys
  • Mediainfo: Clic para Mostrar Datos Ver
  • Format                                   : Matroska
    Format version                           : Version 4 / Version 2
    File size                                : 15.6 GiB
    Duration                                 : 2 h 11 min
    Overall bit rate                         : 17.0 Mb/s
    Movie name                               : CinemaniaHDD.com
    Encoded date                             : UTC 2018-02-18 03:28:27
    Writing application                      : mkvmerge v15.0.0 ('Duel with the Devil') 64-bit
    Writing library                          : libebml v1.3.5 + libmatroska v1.4.5

    Video
    ID                                       : 1
    Format                                   : HEVC
    Format/Info                              : High Efficiency Video Coding
    Format profile                           : Main [email protected]@Main
    Codec ID                                 : V_MPEGH/ISO/HEVC
    Duration                                 : 2 h 11 min
    Bit rate                                 : 15.5 Mb/s
    Width                                    : 3 840 pixels
    Height                                   : 1 600 pixels
    Display aspect ratio                     : 2.40:1
    Frame rate mode                          : Constant
    Frame rate                               : 23.976 (24000/1001) FPS
    Original frame rate                      : 23.976 (23976/1000) FPS
    Color space                              : YUV
    Chroma subsampling                       : 4:2:0
    Bit depth                                : 10 bits
    Bits/(Pixel*Frame)                       : 0.105
    Stream size                              : 14.2 GiB (92%)
    Title                                    : Battleship (2012) 4K HDR Latino
    Writing library                          : x265 1.9:[Linux][GCC 4.6.2][64 bit] 10bit
    Encoding settings                        : wpp / ctu=64 / min-cu-size=8 / max-tu-size=32 / tu-intra-depth=3 / tu-inter-depth=3 / me=3 / subme=4 / merange=57 / rect / amp / max-merge=4 / temporal-mvp / no-early-skip / rdpenalty=0 / no-tskip / no-tskip-fast / strong-intra-smoothing / no-lossless / no-cu-lossless / no-constrained-intra / no-fast-intra / no-open-gop / no-temporal-layers / interlace=0 / keyint=250 / min-keyint=23 / scenecut=0 / rc-lookahead=40 / lookahead-slices=0 / bframes=8 / bframe-bias=0 / b-adapt=2 / ref=3 / limit-refs=1 / limit-modes / weightp / weightb / aq-mode=1 / qg-size=32 / aq-strength=1.00 / cbqpoffs=0 / crqpoffs=0 / rd=6 / psy-rd=2.00 / rdoq-level=2 / psy-rdoq=1.00 / signhide / deblock / sao / no-sao-non-deblock / b-pyramid / cutree / no-intra-refresh / rc=2 / pass / bitrate=16000 / qcomp=0.60 / qpmin=0 / qpmax=51 / qpstep=4 / cplxblur=20.0 / qblur=0.5 / ipratio=1.40 / pbratio=1.30
    Language                                 : English
    Default                                  : Yes
    Forced                                   : No
    Color range                              : Limited
    Color primaries                          : BT.2020
    Transfer characteristics                 : PQ
    Matrix coefficients                      : BT.2020 non-constant

    Audio #1
    ID                                       : 2
    Format                                   : DTS
    Format/Info                              : Digital Theater Systems
    Mode                                     : 16
    Format settings, Endianness              : Big
    Codec ID                                 : A_DTS
    Duration                                 : 2 h 11 min
    Bit rate mode                            : Constant
    Bit rate                                 : 768 kb/s
    Channel(s)                               : 6 channels
    Channel positions                        : Front: L C R, Side: L R, LFE
    Sampling rate                            : 48.0 kHz
    Frame rate                               : 93.750 FPS (512 SPF)
    Bit depth                                : 24 bits
    Compression mode                         : Lossy
    Stream size                              : 721 MiB (5%)
    Language                                 : Spanish
    Default                                  : Yes
    Forced                                   : No

    Audio #2
    ID                                       : 3
    Format                                   : AC-3
    Format/Info                              : Audio Coding 3
    Format settings, Endianness              : Big
    Codec ID                                 : A_AC3
    Duration                                 : 2 h 11 min
    Bit rate mode                            : Constant
    Bit rate                                 : 640 kb/s
    Channel(s)                               : 6 channels
    Channel positions                        : Front: L C R, Side: L R, LFE
    Sampling rate                            : 48.0 kHz
    Frame rate                               : 31.250 FPS (1536 SPF)
    Bit depth                                : 16 bits
    Compression mode                         : Lossy
    Stream size                              : 601 MiB (4%)
    Language                                 : English
    Service kind                             : Complete Main
    Default                                  : No
    Forced                                   : No

    Text #1
    ID                                       : 4
    Format                                   : UTF-8
    Codec ID                                 : S_TEXT/UTF8
    Codec ID/Info                            : UTF-8 Plain Text
    Duration                                 : 2 h 8 min
    Bit rate                                 : 0 b/s
    Count of elements                        : 22
    Stream size                              : 817 Bytes (0%)
    Title                                    : Forzados
    Language                                 : Spanish
    Default                                  : Yes
    Forced                                   : Yes

    Text #2
    ID                                       : 5
    Format                                   : UTF-8
    Codec ID                                 : S_TEXT/UTF8
    Codec ID/Info                            : UTF-8 Plain Text
    Duration                                 : 2 h 9 min
    Bit rate                                 : 48 b/s
    Count of elements                        : 1353
    Stream size                              : 45.9 KiB (0%)
    Language                                 : Spanish
    Default                                  : No
    Forced                                   : No

    Text #3
    ID                                       : 6
    Format                                   : UTF-8
    Codec ID                                 : S_TEXT/UTF8
    Codec ID/Info                            : UTF-8 Plain Text
    Duration                                 : 2 h 9 min
    Bit rate                                 : 50 b/s
    Count of elements                        : 1489
    Stream size                              : 47.9 KiB (0%)
    Title                                    : English
    Language                                 : English
    Default                                  : No
    Forced                                   : No

    Text #4
    ID                                       : 7
    Format                                   : PGS
    Muxing mode                              : zlib
    Codec ID                                 : S_HDMV/PGS
    Codec ID/Info                            : Picture based subtitle format used on BDs/HD-DVDs
    Duration                                 : 2 h 8 min
    Bit rate                                 : 639 b/s
    Count of elements                        : 44
    Stream size                              : 601 KiB (0%)
    Title                                    : Forzados
    Language                                 : Spanish
    Default                                  : No
    Forced                                   : No

    Text #5
    ID                                       : 8
    Format                                   : PGS
    Muxing mode                              : zlib
    Codec ID                                 : S_HDMV/PGS
    Codec ID/Info                            : Picture based subtitle format used on BDs/HD-DVDs
    Duration                                 : 2 h 9 min
    Bit rate                                 : 29.6 kb/s
    Count of elements                        : 2706
    Stream size                              : 27.5 MiB (0%)
    Language                                 : Spanish
    Default                                  : No
    Forced                                   : No

    Text #6
    ID                                       : 9
    Format                                   : PGS
    Muxing mode                              : zlib
    Codec ID                                 : S_HDMV/PGS
    Codec ID/Info                            : Picture based subtitle format used on BDs/HD-DVDs
    Duration                                 : 2 h 9 min
    Bit rate                                 : 32.8 kb/s
    Count of elements                        : 2978
    Stream size                              : 30.4 MiB (0%)
    Title                                    : English
    Language                                 : English
    Default                                  : No
    Forced                                   : No

    Menu
    00:00:00.000                             : :Chapter 01
    00:05:00.000                             : :Chapter 02
    00:10:00.000                             : :Chapter 03
    00:15:00.000                             : :Chapter 04
    00:20:00.000                             : :Chapter 05
    00:25:00.000                             : :Chapter 06
    00:30:00.000                             : :Chapter 07
    00:35:00.000                             : :Chapter 08
    00:40:00.000                             : :Chapter 09
    00:45:00.000                             : :Chapter 10
    00:50:00.000                             : :Chapter 11
    00:55:00.000                             : :Chapter 12
    01:00:00.000                             : :Chapter 13
    01:05:00.000                             : :Chapter 14
    01:10:00.000                             : :Chapter 15
    01:15:00.000                             : :Chapter 16
    01:20:00.000                             : :Chapter 17
    01:25:00.000                             : :Chapter 18
    01:30:00.000                             : :Chapter 19
    01:35:00.000                             : :Chapter 20
    01:40:00.000                             : :Chapter 21
    01:45:00.000                             : :Chapter 22
    01:50:00.000                             : :Chapter 23
    01:55:00.000                             : :Chapter 24
    02:00:00.000                             : :Chapter 25
    02:05:00.000                             : :Chapter 26
    02:10:00.000                             : :Chapter 27

  • Peso: 15.6 GiB

Sinopsis

“Battleship” es la libre adaptación al cine del popular juego de mesa de Hasbro conocido como “Hundir la flota” o ”Batalla naval”. La curiosa variante que plantea esta versión es que la batalla será entre la U.S. Navy y… ¡una flota alienígena! La historia nos propone una épica aventura de acción que transcurre en el mar, el cielo y la tierra, y en la que nuestro planeta lucha por sobrevivir contra una fuerza muy superior. La película está protagonizada por Taylor Kitsch en el papel del teniente Hopper, un oficial de la Marina destinado al John Paul Jones; Brooklyn Decker es Sam Shane, una fisioterapeuta de la Marina y novia de Hopper; Alexander Skarsgård es Stone, el hermano mayor de Hopper y comandante del Samson; Rihanna es la suboficial Raikes, especialista en armas del John Paul Jones; y Liam Neeson es el almirante Shane, el oficial superior de Hopper y Stone (y padre de Sam).

 

Audios: DTS Latino 5.1 – AC3 Ingles 5.1

Ficha técnica

Video trailer de la película

Enlaces de descarga

Rip de Bluray

Descargar Battleship (2012) 4K HDR Latino




Aportes de DPeliculasHDmega la pass es:dpeliculashdmega.org Aportes de CinemaniaHD la pass es:eatsouthward.com

Películas relacionadas

  • Peter Rabbit (2018) 1080p Latino

    2018
    Peter Rabbit (2018) 1080p Latino

    5.0 1h 35m 2018

    Peter Rabbit no es un conejo cualquiera. Es un rebelde travieso y aventurero que viste camisa azul y...

    Director: Will Gluck

    Género: Animación

    Actores: Will Reichelt

  • Ash vs. Evil Dead (2017) Temporada 3 WEBDL Latino

    2015
    Ash vs. Evil Dead (2017) Temporada 3 WEBDL Latino

    5.0 0h 43m 2015

    Esta temporada 3 seguirá, por tanto, contando con la participación de Lucy Lawless en el papel de la...

    Director: Sam Raimi

    Género: Acción

    Actores: Ray Santiago

  • Hostiles (2017) 1080p Subtitulado

    2017
    Hostiles (2017) 1080p Subtitulado

    0.0 2h 13m 2017

    El legendario capitán del ejército Joseph J. Blocker (Christian Bale) se compromete para acompañar...

    Director: Xanthus Valan

    Género: Aventura

    Actores: Xavier Horsechief

  • El planeta desconocido (1956) Full 1080p Latino

    1956
    El planeta desconocido (1956) Full 1080p Latino

    0.0 1 h 38 min 1956

    Reconocido como uno de los clásicos de la ciencia-ficcion adulta, Forbidden Planet es una de las grandes...

    Director: Fred M. Wilcox

    Género: Ciencia ficción

    Actores: William Boyett

Comentarios 3
  • #Cinefilo - 18 febrero, 2018

    De verdad muchas gracias, queria preguntarle si subiran megamente, los croods, los increibles y 21 y 22 jump street, Gracias

  • dpeliculasfan1 - 18 febrero, 2018

    hola, gracias por la película, sacaran version en caratula plateada de 6 o 7 gb? espero que si, porque la quiero agregar a mi colección 🙂

    • Dracarys - 18 febrero, 2018

      Pronto se agregara.

-->