Batman: Gotham a luz de gas (2018) Full 1080p Latino

1.391 vistas
1 estrella2 estrellas3 estrellas4 estrellas5 estrellas (2 votos, promedio: 5,00 de 5)
Cargando…

Información de Batman: Gotham a luz de gas (2018) Full 1080p Latino

Datos de la película

  • Calidad: Full 1080p
  • Audio: Español Latino AC3 5.1 BLURAY - Ingles DTS 5.1 BLURAY
  • Subtitulos: Español Latino PGS - Ingles PGS
  • Resolución: 1920X1080p
  • Formato: MKV
  • Codec: H.264
  • Encoder: Dracarys
  • Mediainfo: Clic para Mostrar Datos Ver
  • Format                                   : Matroska
    Format version                           : Version 4 / Version 2
    File size                                : 2.25 GiB
    Duration                                 : 1 h 17 min
    Overall bit rate                         : 4 185 kb/s
    Movie name                               : CinemaniaHDD.com
    Encoded date                             : UTC 2018-02-01 04:46:32 / UTC 2018-01-31T21:34:51Z
    Writing application                      : mkvmerge v15.0.0 ('Duel with the Devil') 64-bit
    Writing library                          : libebml v1.3.5 + libmatroska v1.4.5 / Lavf57.7.2

    Video
    ID                                       : 1
    Format                                   : AVC
    Format/Info                              : Advanced Video Codec
    Format profile                           : [email protected]
    Format settings                          : CABAC / 4 Ref Frames
    Format settings, CABAC                   : Yes
    Format settings, RefFrames               : 4 frames
    Codec ID                                 : V_MPEG4/ISO/AVC
    Duration                                 : 1 h 17 min
    Bit rate                                 : 1 953 kb/s
    Width                                    : 1 920 pixels
    Height                                   : 1 080 pixels
    Display aspect ratio                     : 16:9
    Frame rate mode                          : Constant
    Frame rate                               : 23.976 (24000/1001) FPS
    Color space                              : YUV
    Chroma subsampling                       : 4:2:0
    Bit depth                                : 8 bits
    Scan type                                : Progressive
    Bits/(Pixel*Frame)                       : 0.039
    Stream size                              : 1.05 GiB (47%)
    Title                                    : Batman: Gotham a luz de gas (2018) Full 1080p Latino
    Writing library                          : x264 core 148 r2708 86b7198
    Encoding settings                        : cabac=1 / ref=4 / deblock=1:0:0 / analyse=0x3:0x133 / me=esa / subme=10 / psy=1 / psy_rd=1.00:0.00 / mixed_ref=1 / me_range=24 / chroma_me=1 / trellis=2 / 8x8dct=1 / cqm=0 / deadzone=21,11 / fast_pskip=1 / chroma_qp_offset=-2 / threads=34 / lookahead_threads=5 / sliced_threads=0 / nr=0 / decimate=1 / interlaced=0 / bluray_compat=0 / constrained_intra=0 / bframes=8 / b_pyramid=2 / b_adapt=2 / b_bias=0 / direct=3 / weightb=1 / open_gop=0 / weightp=2 / keyint=240 / keyint_min=24 / scenecut=40 / intra_refresh=0 / rc_lookahead=60 / rc=crf / mbtree=1 / crf=20.0 / qcomp=0.60 / qpmin=0 / qpmax=69 / qpstep=4 / vbv_maxrate=62500 / vbv_bufsize=78125 / crf_max=0.0 / nal_hrd=none / filler=0 / ip_ratio=1.40 / aq=1:1.00
    Language                                 : English
    Default                                  : Yes
    Forced                                   : No
    Color range                              : Limited
    Color primaries                          : BT.709
    Transfer characteristics                 : BT.709
    Matrix coefficients                      : BT.709
    Statistics Tags Issue                    : mkvmerge v15.0.0 ('Duel with the Devil') 64-bit 2018-02-01 04:46:32 / mkvmerge v15.0.0 ('Duel with the Devil') 64-bit 2018-02-01 04:46:32 / UTC 2018-01-31T21:34:51Z
    FromStats_BitRate                        : 1997713
    FromStats_Duration                       : 01:17:04.245000000
    FromStats_FrameCount                     : 110871
    FromStats_StreamSize                     : 1154739548

    Audio #1
    ID                                       : 2
    Format                                   : AC-3
    Format/Info                              : Audio Coding 3
    Format settings, Endianness              : Big
    Codec ID                                 : A_AC3
    Duration                                 : 1 h 17 min
    Bit rate mode                            : Constant
    Bit rate                                 : 640 kb/s
    Channel(s)                               : 6 channels
    Channel positions                        : Front: L C R, Side: L R, LFE
    Sampling rate                            : 48.0 kHz
    Frame rate                               : 31.250 FPS (1536 SPF)
    Bit depth                                : 16 bits
    Compression mode                         : Lossy
    Stream size                              : 353 MiB (15%)
    Language                                 : Spanish
    Service kind                             : Complete Main
    Default                                  : Yes
    Forced                                   : No
    Statistics Tags Issue                    : mkvmerge v15.0.0 ('Duel with the Devil') 64-bit 2018-02-01 04:46:32 / mkvmerge v15.0.0 ('Duel with the Devil') 64-bit 2018-02-01 04:46:32 / UTC 2018-01-31T21:34:51Z
    FromStats_BitRate                        : 640000
    FromStats_Duration                       : 01:17:04.256000000
    FromStats_FrameCount                     : 144508
    FromStats_StreamSize                     : 369940480

    Audio #2
    ID                                       : 3
    Format                                   : DTS
    Format/Info                              : Digital Theater Systems
    Mode                                     : 16
    Format settings, Endianness              : Big
    Codec ID                                 : A_DTS
    Duration                                 : 1 h 17 min
    Bit rate mode                            : Constant
    Bit rate                                 : 1 509 kb/s
    Channel(s)                               : 6 channels
    Channel positions                        : Front: L C R, Side: L R, LFE
    Sampling rate                            : 48.0 kHz
    Frame rate                               : 93.750 FPS (512 SPF)
    Bit depth                                : 24 bits
    Compression mode                         : Lossy
    Stream size                              : 832 MiB (36%)
    Language                                 : English
    Default                                  : No
    Forced                                   : No
    Statistics Tags Issue                    : mkvmerge v15.0.0 ('Duel with the Devil') 64-bit 2018-02-01 04:46:32 / mkvmerge v15.0.0 ('Duel with the Devil') 64-bit 2018-02-01 04:46:32 / UTC 2018-01-31T21:34:51Z
    FromStats_BitRate                        : 1508999
    FromStats_Duration                       : 01:17:04.246000000
    FromStats_FrameCount                     : 433523
    FromStats_StreamSize                     : 872248276

    Text #1
    ID                                       : 4
    Format                                   : UTF-8
    Codec ID                                 : S_TEXT/UTF8
    Codec ID/Info                            : UTF-8 Plain Text
    Title                                    : SRT-Forzados
    Language                                 : Spanish
    Default                                  : Yes
    Forced                                   : Yes
    Statistics Tags Issue                    : mkvmerge v15.0.0 ('Duel with the Devil') 64-bit 2018-02-01 04:46:32 / mkvmerge v15.0.0 ('Duel with the Devil') 64-bit 2018-02-01 04:46:32 / UTC 2018-01-31T21:34:51Z
    FromStats_BitRate                        : 2
    FromStats_Duration                       : 01:01:00.958000000
    FromStats_FrameCount                     : 25
    FromStats_StreamSize                     : 1042

    Text #2
    ID                                       : 5
    Format                                   : UTF-8
    Codec ID                                 : S_TEXT/UTF8
    Codec ID/Info                            : UTF-8 Plain Text
    Title                                    : SRT-Completos
    Language                                 : Spanish
    Default                                  : No
    Forced                                   : No
    Statistics Tags Issue                    : mkvmerge v15.0.0 ('Duel with the Devil') 64-bit 2018-02-01 04:46:32 / mkvmerge v15.0.0 ('Duel with the Devil') 64-bit 2018-02-01 04:46:32 / UTC 2018-01-31T21:34:51Z
    FromStats_BitRate                        : 58
    FromStats_Duration                       : 01:13:12.523000000
    FromStats_FrameCount                     : 861
    FromStats_StreamSize                     : 31925

    Text #3
    ID                                       : 6
    Format                                   : PGS
    Muxing mode                              : zlib
    Codec ID                                 : S_HDMV/PGS
    Codec ID/Info                            : Picture based subtitle format used on BDs/HD-DVDs
    Title                                    : PGS-Forzados
    Language                                 : Spanish
    Default                                  : No
    Forced                                   : No
    Statistics Tags Issue                    : mkvmerge v15.0.0 ('Duel with the Devil') 64-bit 2018-02-01 04:46:32 / mkvmerge v15.0.0 ('Duel with the Devil') 64-bit 2018-02-01 04:46:32 / UTC 2018-01-31T21:34:51Z
    FromStats_BitRate                        : 2107
    FromStats_Duration                       : 01:01:00.952000000
    FromStats_FrameCount                     : 50
    FromStats_StreamSize                     : 964372

    Text #4
    ID                                       : 7
    Format                                   : PGS
    Muxing mode                              : zlib
    Codec ID                                 : S_HDMV/PGS
    Codec ID/Info                            : Picture based subtitle format used on BDs/HD-DVDs
    Title                                    : PGS-Completos
    Language                                 : Spanish
    Default                                  : No
    Forced                                   : No
    Statistics Tags Issue                    : mkvmerge v15.0.0 ('Duel with the Devil') 64-bit 2018-02-01 04:46:32 / mkvmerge v15.0.0 ('Duel with the Devil') 64-bit 2018-02-01 04:46:32 / UTC 2018-01-31T21:34:51Z
    FromStats_BitRate                        : 53917
    FromStats_Duration                       : 01:13:12.518000000
    FromStats_FrameCount                     : 1722
    FromStats_StreamSize                     : 29604313

    Text #5
    ID                                       : 8
    Format                                   : PGS
    Muxing mode                              : zlib
    Codec ID                                 : S_HDMV/PGS
    Codec ID/Info                            : Picture based subtitle format used on BDs/HD-DVDs
    Language                                 : English
    Default                                  : No
    Forced                                   : No
    Statistics Tags Issue                    : mkvmerge v15.0.0 ('Duel with the Devil') 64-bit 2018-02-01 04:46:32 / mkvmerge v15.0.0 ('Duel with the Devil') 64-bit 2018-02-01 04:46:32 / UTC 2018-01-31T21:34:51Z
    FromStats_BitRate                        : 37261
    FromStats_Duration                       : 01:16:54.693000000
    FromStats_FrameCount                     : 2040
    FromStats_StreamSize                     : 21493593

    Menu
    00:00:00.000                             : :Chapter 1
    00:13:23.177                             : :Chapter 2
    00:21:15.316                             : :Chapter 3
    00:33:37.891                             : :Chapter 4
    00:45:00.865                             : :Chapter 5
    00:53:28.872                             : :Chapter 6
    01:04:41.002                             : :Chapter 7
    01:14:02.271                             : :Chapter 8

  • Peso: 2.25 GiB

Sinopsis

Adaptación de la novela gráfica creada por Brian Augustyn y Mike Mignola, que sitúa a Batman en el siglo XIX con Jack el Destripador como villano.

Ficha técnica

Video trailer de la película

Enlaces de descarga

Rip de Bluray

Descargar Batman: Gotham a luz de gas (2018) Full 1080p Latino




Aportes de DPeliculasHDmega la pass es:dpeliculashdmega.org Aportes de CinemaniaHD la pass es:eatsouthward.com

Películas relacionadas

  • Batman Ninja (2018) WEB-DL 1080p Latino

    2018
    Batman Ninja (2018) WEB-DL 1080p Latino

    5.0 1h 25m 2018

    Batman, junto a sus aliados y enemigos, se ve transportado desde la moderna Gotham hasta el Japón feudal....

    Director: Junpei Mizusaki

    Género: Acción

    Actores: Yuuki Kaji

  • Niños del hombre (2006) Full 1080p Latino

    2006
    Niños del hombre (2006) Full 1080p Latino

    0.0 1 h 49 min 2006

    Año 2027: el ser humano está al borde de la extinción: los hombres han perdido la capacidad de procrear...

    Director: Terry Needham

    Género: Acción

    Actores: Yolanda Vazquez

  • Winchester (2018) 1080p Latino

    2018
    Winchester (2018) 1080p Latino

    0.0 1h 39m 2018

    A finales del siglo XIX, después de la trágica muerte de su marido y su hijo, Sarah construye una casa-fortaleza...

    Director: Peter Spierig

    Género: Fantasía

    Actores: Xavier Gouault

  • Unlocked (2017) 1080p Latino

    2017
    Unlocked (2017) 1080p Latino

    3.0 1h 43m 2017

    Gira en torno a una agente de la CIA, especializada en interrogatorios, que es engañada por un sospechoso,...

    Director: Vera Homolacova

    Género: Acción

    Actores: Tosin Cole

Comentarios 1
  • Slash - 23 febrero, 2018

    Gracias, publiquen mas animadas de super héroes.

-->