Batman: el caballero de la noche (2008) IMAX 4K HDR Latino

1.976 vistas
1 estrella2 estrellas3 estrellas4 estrellas5 estrellas (Ninguna valoración todavía)
Cargando…

Información de Batman: el caballero de la noche (2008) IMAX 4K HDR Latino

Datos de la película

  • Calidad: 4K HDR
  • Audio: Español Latino AC3 5.1 BLURAY - Ingles AC3 5.1 BLURAY
  • Subtitulos: Español Latino PGS - Ingles PGS
  • Resolución: 3840x2160p
  • Formato: MKV
  • Codec: HEVC
  • Encoder: Dracarys
  • Mediainfo: Clic para Mostrar Datos Ver
  • Format                                   : Matroska
    Format version                           : Version 4 / Version 2
    File size                                : 18.5 GiB
    Duration                                 : 2 h 32 min
    Overall bit rate                         : 17.4 Mb/s
    Movie name                               : CinemaniaHDD.com
    Encoded date                             : UTC 2018-02-16 04:06:26
    Writing application                      : mkvmerge v15.0.0 ('Duel with the Devil') 64-bit
    Writing library                          : libebml v1.3.5 + libmatroska v1.4.5

    Video
    ID                                       : 1
    Format                                   : HEVC
    Format/Info                              : High Efficiency Video Coding
    Format profile                           : Main [email protected]@High
    Codec ID                                 : V_MPEGH/ISO/HEVC
    Duration                                 : 2 h 32 min
    Bit rate                                 : 16.1 Mb/s
    Width                                    : 3 840 pixels
    Height                                   : 2 160 pixels
    Display aspect ratio                     : 16:9
    Frame rate mode                          : Constant
    Frame rate                               : 23.976 (24000/1001) FPS
    Color space                              : YUV
    Chroma subsampling                       : 4:2:0 (Type 2)
    Bit depth                                : 10 bits
    Bits/(Pixel*Frame)                       : 0.081
    Stream size                              : 17.1 GiB (92%)
    Title                                    : Batman: el caballero de la noche (2008) IMAX 4K HDR Latino
    Writing library                          : x265 2.6+4-f7498acb3874:[Windows][GCC 7.2.0][64 bit] 10bit
    Encoding settings                        : cpuid=1173503 / frame-threads=4 / numa-pools=16 / wpp / no-pmode / no-pme / no-psnr / no-ssim / log-level=2 / input-csp=1 / input-res=3840x2160 / interlace=0 / total-frames=218955 / level-idc=51 / high-tier=1 / uhd-bd=0 / ref=4 / no-allow-non-conformance / repeat-headers / annexb / aud / hrd / info / hash=0 / no-temporal-layers / no-open-gop / min-keyint=24 / keyint=240 / bframes=4 / b-adapt=2 / b-pyramid / bframe-bias=0 / rc-lookahead=25 / lookahead-slices=4 / scenecut=40 / no-intra-refresh / ctu=64 / min-cu-size=8 / rect / no-amp / max-tu-size=32 / tu-inter-depth=1 / tu-intra-depth=1 / limit-tu=0 / rdoq-level=2 / dynamic-rd=0.00 / no-ssim-rd / signhide / no-tskip / nr-intra=0 / nr-inter=0 / no-constrained-intra / no-strong-intra-smoothing / max-merge=3 / limit-refs=3 / limit-modes / me=3 / subme=3 / merange=57 / temporal-mvp / weightp / no-weightb / no-analyze-src-pics / deblock=-3:-3 / no-sao / no-sao-non-deblock / rd=4 / no-early-skip / rskip / no-fast-intra / no-tskip-fast / no-cu-lossless / no-b-intra / no-splitrd-skip / rdpenalty=0 / psy-rd=2.00 / psy-rdoq=1.00 / no-rd-refine / analysis-reuse-mode=0 / no-lossless / cbqpoffs=0 / crqpoffs=0 / rc=crf / crf=17.0 / qcomp=0.60 / qpstep=4 / stats-write=0 / stats-read=0 / vbv-maxrate=160000 / vbv-bufsize=160000 / vbv-init=0.9 / crf-max=0.0 / crf-min=0.0 / ipratio=1.40 / pbratio=1.30 / aq-mode=1 / aq-strength=1.00 / cutree / zone-count=0 / no-strict-cbr / qg-size=32 / no-rc-grain / qpmax=69 / qpmin=0 / no-const-vbv / sar=1 / overscan=0 / videoformat=5 / range=0 / colorprim=9 / transfer=16 / colormatrix=9 / chromaloc=1 / chromaloc-top=2 / chromaloc-bottom=2 / display-window=0 / master-display=G(13250,34500)B(7500,3000)R(34000,16000)WP(15635,16450)L(40000000,50) / max-cll=1002,225 / min-luma=0 / max-luma=1023 / log2-max-poc-lsb=8 / vui-timing-info / vui-hrd-info / slices=1 / opt-qp-pps / opt-ref-list-length-pps / no-multi-pass-opt-rps / scenecut-bias=0.05 / no-opt-cu-delta-qp / no-aq-motion / hdr / hdr-opt / no-dhdr10-opt / analysis-reuse-level=5 / scale-factor=0 / refine-intra=0 / refine-inter=0 / refine-mv=0 / no-limit-sao / ctu-info=0 / no-lowpass-dct / refine-mv-type=0 / copy-pic=1
    Language                                 : English
    Default                                  : Yes
    Forced                                   : No
    Color range                              : Limited
    Color primaries                          : BT.2020
    Transfer characteristics                 : PQ
    Matrix coefficients                      : BT.2020 non-constant
    Mastering display color primaries        : R: x=0.680000 y=0.320000, G: x=0.265000 y=0.690000, B: x=0.150000 y=0.060000, White point: x=0.312700 y=0.329000
    Mastering display luminance              : min: 0.0050 cd/m2, max: 4000.0000 cd/m2
    Maximum Content Light Level              : 1002 cd/m2
    Maximum Frame-Average Light Level        : 225 cd/m2

    Audio #1
    ID                                       : 2
    Format                                   : AC-3
    Format/Info                              : Audio Coding 3
    Format settings, Endianness              : Big
    Codec ID                                 : A_AC3
    Duration                                 : 2 h 32 min
    Bit rate mode                            : Constant
    Bit rate                                 : 640 kb/s
    Channel(s)                               : 6 channels
    Channel positions                        : Front: L C R, Side: L R, LFE
    Sampling rate                            : 48.0 kHz
    Frame rate                               : 31.250 FPS (1536 SPF)
    Bit depth                                : 16 bits
    Compression mode                         : Lossy
    Stream size                              : 697 MiB (4%)
    Language                                 : Spanish
    Service kind                             : Complete Main
    Default                                  : Yes
    Forced                                   : No

    Audio #2
    ID                                       : 3
    Format                                   : AC-3
    Format/Info                              : Audio Coding 3
    Format settings, Endianness              : Big
    Codec ID                                 : A_AC3
    Duration                                 : 2 h 32 min
    Bit rate mode                            : Constant
    Bit rate                                 : 640 kb/s
    Channel(s)                               : 6 channels
    Channel positions                        : Front: L C R, Side: L R, LFE
    Sampling rate                            : 48.0 kHz
    Frame rate                               : 31.250 FPS (1536 SPF)
    Bit depth                                : 16 bits
    Compression mode                         : Lossy
    Stream size                              : 697 MiB (4%)
    Language                                 : English
    Service kind                             : Complete Main
    Default                                  : No
    Forced                                   : No

    Text #1
    ID                                       : 4
    Format                                   : UTF-8
    Codec ID                                 : S_TEXT/UTF8
    Codec ID/Info                            : UTF-8 Plain Text
    Duration                                 : 2 h 17 min
    Bit rate                                 : 0 b/s
    Count of elements                        : 14
    Stream size                              : 474 Bytes (0%)
    Title                                    : Forzados
    Language                                 : Spanish
    Default                                  : Yes
    Forced                                   : No

    Text #2
    ID                                       : 5
    Format                                   : UTF-8
    Codec ID                                 : S_TEXT/UTF8
    Codec ID/Info                            : UTF-8 Plain Text
    Duration                                 : 2 h 30 min
    Bit rate                                 : 60 b/s
    Count of elements                        : 1943
    Stream size                              : 66.5 KiB (0%)
    Title                                    : Español
    Language                                 : Spanish
    Default                                  : No
    Forced                                   : No

    Text #3
    ID                                       : 6
    Format                                   : UTF-8
    Codec ID                                 : S_TEXT/UTF8
    Codec ID/Info                            : UTF-8 Plain Text
    Duration                                 : 2 h 30 min
    Bit rate                                 : 66 b/s
    Count of elements                        : 2010
    Stream size                              : 73.9 KiB (0%)
    Title                                    : SDH SRT
    Language                                 : English
    Default                                  : No
    Forced                                   : No

    Text #4
    ID                                       : 7
    Format                                   : PGS
    Muxing mode                              : zlib
    Codec ID                                 : S_HDMV/PGS
    Codec ID/Info                            : Picture based subtitle format used on BDs/HD-DVDs
    Duration                                 : 2 h 30 min
    Bit rate                                 : 34.0 kb/s
    Count of elements                        : 3886
    Stream size                              : 36.6 MiB (0%)
    Title                                    : Forzados
    Language                                 : Spanish
    Default                                  : No
    Forced                                   : No

    Text #5
    ID                                       : 8
    Format                                   : PGS
    Muxing mode                              : zlib
    Codec ID                                 : S_HDMV/PGS
    Codec ID/Info                            : Picture based subtitle format used on BDs/HD-DVDs
    Duration                                 : 2 h 30 min
    Bit rate                                 : 32.8 kb/s
    Count of elements                        : 3608
    Stream size                              : 35.2 MiB (0%)
    Title                                    : Latin
    Language                                 : Spanish
    Default                                  : No
    Forced                                   : No

    Text #6
    ID                                       : 9
    Format                                   : PGS
    Muxing mode                              : zlib
    Codec ID                                 : S_HDMV/PGS
    Codec ID/Info                            : Picture based subtitle format used on BDs/HD-DVDs
    Duration                                 : 2 h 30 min
    Bit rate                                 : 38.8 kb/s
    Count of elements                        : 4020
    Stream size                              : 41.8 MiB (0%)
    Title                                    : SDH
    Language                                 : English
    Default                                  : No
    Forced                                   : No

    Menu
    00:00:00.000                             : en:00:00:00.000
    00:06:23.925                             : en:00:06:23.925
    00:10:36.135                             : en:00:10:36.135
    00:13:52.540                             : en:00:13:52.540
    00:17:54.156                             : en:00:17:54.156
    00:21:39.298                             : en:00:21:39.298
    00:26:09.985                             : en:00:26:09.985
    00:29:36.233                             : en:00:29:36.233
    00:31:42.442                             : en:00:31:42.442
    00:37:49.017                             : en:00:37:49.017
    00:43:34.028                             : en:00:43:34.028
    00:46:39.505                             : en:00:46:39.505
    00:48:57.726                             : en:00:48:57.726
    00:53:19.405                             : en:00:53:19.405
    00:57:15.599                             : en:00:57:15.599
    00:59:26.313                             : en:00:59:26.313
    01:03:59.544                             : en:01:03:59.544
    01:08:23.516                             : en:01:08:23.516
    01:10:48.286                             : en:01:10:48.286
    01:14:24.877                             : en:01:14:24.877
    01:18:05.598                             : en:01:18:05.598
    01:22:22.396                             : en:01:22:22.396
    01:24:48.542                             : en:01:24:48.542
    01:30:48.401                             : en:01:30:48.401
    01:34:04.931                             : en:01:34:04.931
    01:39:57.742                             : en:01:39:57.742
    01:42:05.453                             : en:01:42:05.453
    01:44:59.877                             : en:01:44:59.877
    01:47:00.831                             : en:01:47:00.831
    01:51:09.872                             : en:01:51:09.872
    01:54:14.598                             : en:01:54:14.598
    01:57:03.975                             : en:01:57:03.975
    02:00:14.207                             : en:02:00:14.207
    02:03:37.535                             : en:02:03:37.535
    02:09:07.573                             : en:02:09:07.573
    02:12:27.273                             : en:02:12:27.273
    02:15:22.740                             : en:02:15:22.740
    02:19:58.640                             : en:02:19:58.640
    02:24:26.658                             : en:02:24:26.658

  • Peso: 18.5 GiB

Sinopsis

Batman regresa para continuar su guerra contra el crimen. Con la ayuda del teniente Jim Gordon y el Fiscal del Distrito Harvey Dent, Batman tiene como objetivo destruir el crimen organizado en la ciudad de Gotham. El triunvirato demuestra ser eficaz, pero pronto termina siendo presa del caos desencadenado por una nueva mente criminal que los aterrados ciudadanos conocen como Joker.

Ficha técnica

Video trailer de la película

Enlaces de descarga

Rip de Bluray

Descargar Batman: el caballero de la noche (2008) IMAX 4K HDR Latino




Aportes de DPeliculasHDmega la pass es:dpeliculashdmega.org Aportes de CinemaniaHD la pass es:eatsouthward.com
Guardado en : 4K HDR , 4K UHD , Acción , Crimen , Drama , Suspense

Películas relacionadas

  • Ash vs. Evil Dead (2017) Temporada 3 WEBDL Latino

    2015
    Ash vs. Evil Dead (2017) Temporada 3 WEBDL Latino

    5.0 0h 43m 2015

    Esta temporada 3 seguirá, por tanto, contando con la participación de Lucy Lawless en el papel de la...

    Director: Sam Raimi

    Género: Acción

    Actores: Ray Santiago

  • Hostiles (2017) 1080p Subtitulado

    2017
    Hostiles (2017) 1080p Subtitulado

    0.0 2h 13m 2017

    El legendario capitán del ejército Joseph J. Blocker (Christian Bale) se compromete para acompañar...

    Director: Xanthus Valan

    Género: Aventura

    Actores: Xavier Horsechief

Comentarios 5
  • Eddy - 16 febrero, 2018

    HOLA QUE BUENA PRODUCCION DE BATMAN PERO PUEDES SUBIR ESTE 4K CON CODEC H264 COMO LO HICISTE CON LA PELICULA WONDER (EXTRAORDINARIO)

  • Adrian - 16 febrero, 2018

    si la puedes suber en OpenMatte porfa

    • Dracarys - 17 febrero, 2018

      No esta la version open matte de estas peliculas

  • Max - 16 febrero, 2018

    Nooo que buen material que están subiendo… Lástima que no tengo en que reproducir esto la puta madre

    • Rxdrigx17 - 17 febrero, 2018

      Jajajaja, estamos igual :(((

-->