Barry Seal: solo en América (2017) Full 1080p Latino

2.230 vistas
1 estrella2 estrellas3 estrellas4 estrellas5 estrellas (Ninguna valoración todavía)
Cargando…

Información de Barry Seal: solo en América (2017) Full 1080p Latino

Datos de la película

  • Calidad: Full 1080p
  • Audio: Español Latino DTS 5.1 BLURAY - Ingles DTS 5.1 BLURAY
  • Subtitulos: Español Latino PGS
  • Resolución: 1920X1080p
  • Formato: MKV
  • Codec: H.264
  • Encoder: Dracarys
  • Mediainfo: Clic para Mostrar Datos Ver
  • Format                                   : Matroska
    Format version                           : Version 4 / Version 2
    File size                                : 6.93 GiB
    Duration                                 : 1 h 54 min
    Overall bit rate                         : 8 629 kb/s
    Movie name                               : CinemaniaHDD.com
    Encoded date                             : UTC 2017-12-15 23:34:31 / UTC 2017-12-09T18:14:37Z
    Writing application                      : mkvmerge v15.0.0 ('Duel with the Devil') 64-bit
    Writing library                          : libebml v1.3.5 + libmatroska v1.4.5 / Lavf57.7.2

    Video
    ID                                       : 1
    Format                                   : AVC
    Format/Info                              : Advanced Video Codec
    Format profile                           : [email protected]
    Format settings                          : CABAC / 4 Ref Frames
    Format settings, CABAC                   : Yes
    Format settings, RefFrames               : 4 frames
    Codec ID                                 : V_MPEG4/ISO/AVC
    Duration                                 : 1 h 54 min
    Bit rate                                 : 6 180 kb/s
    Width                                    : 1 920 pixels
    Height                                   : 1 080 pixels
    Display aspect ratio                     : 16:9
    Frame rate mode                          : Constant
    Frame rate                               : 23.976 (24000/1001) FPS
    Color space                              : YUV
    Chroma subsampling                       : 4:2:0
    Bit depth                                : 8 bits
    Scan type                                : Progressive
    Bits/(Pixel*Frame)                       : 0.124
    Stream size                              : 4.96 GiB (72%)
    Title                                    : Barry Seal: solo en América (2017) Full 1080p Latino
    Writing library                          : x264 core 148 r2708 86b7198
    Encoding settings                        : cabac=1 / ref=4 / deblock=1:0:0 / analyse=0x3:0x133 / me=esa / subme=10 / psy=1 / psy_rd=1.00:0.00 / mixed_ref=1 / me_range=24 / chroma_me=1 / trellis=2 / 8x8dct=1 / cqm=0 / deadzone=21,11 / fast_pskip=1 / chroma_qp_offset=-2 / threads=34 / lookahead_threads=5 / sliced_threads=0 / nr=0 / decimate=1 / interlaced=0 / bluray_compat=0 / constrained_intra=0 / bframes=8 / b_pyramid=2 / b_adapt=2 / b_bias=0 / direct=3 / weightb=1 / open_gop=0 / weightp=2 / keyint=240 / keyint_min=24 / scenecut=40 / intra_refresh=0 / rc_lookahead=60 / rc=crf / mbtree=1 / crf=20.0 / qcomp=0.60 / qpmin=0 / qpmax=69 / qpstep=4 / vbv_maxrate=62500 / vbv_bufsize=78125 / crf_max=0.0 / nal_hrd=none / filler=0 / ip_ratio=1.40 / aq=1:1.00
    Language                                 : English
    Default                                  : Yes
    Forced                                   : No
    Color range                              : Limited
    Color primaries                          : BT.709
    Transfer characteristics                 : BT.709
    Matrix coefficients                      : BT.709
    Statistics Tags Issue                    : mkvmerge v15.0.0 ('Duel with the Devil') 64-bit 2017-12-15 23:34:31 / mkvmerge v15.0.0 ('Duel with the Devil') 64-bit 2017-12-15 23:34:31 / UTC 2017-12-09T18:14:37Z
    FromStats_BitRate                        : 6338147
    FromStats_Duration                       : 01:54:58.892000000
    FromStats_FrameCount                     : 165408
    FromStats_StreamSize                     : 5465774704

    Audio #1
    ID                                       : 2
    Format                                   : DTS
    Format/Info                              : Digital Theater Systems
    Mode                                     : 16
    Format settings, Endianness              : Big
    Codec ID                                 : A_DTS
    Duration                                 : 1 h 54 min
    Bit rate mode                            : Constant
    Bit rate                                 : 768 kb/s
    Channel(s)                               : 6 channels
    Channel positions                        : Front: L C R, Side: L R, LFE
    Sampling rate                            : 48.0 kHz
    Frame rate                               : 93.750 FPS (512 SPF)
    Bit depth                                : 24 bits
    Compression mode                         : Lossy
    Stream size                              : 632 MiB (9%)
    Language                                 : Spanish
    Default                                  : Yes
    Forced                                   : No
    Statistics Tags Issue                    : mkvmerge v15.0.0 ('Duel with the Devil') 64-bit 2017-12-15 23:34:31 / mkvmerge v15.0.0 ('Duel with the Devil') 64-bit 2017-12-15 23:34:31 / UTC 2017-12-09T18:14:37Z
    FromStats_BitRate                        : 767999
    FromStats_Duration                       : 01:54:58.891000000
    FromStats_FrameCount                     : 646771
    FromStats_StreamSize                     : 662293504

    Audio #2
    ID                                       : 3
    Format                                   : DTS
    Format/Info                              : Digital Theater Systems
    Mode                                     : 16
    Format settings, Endianness              : Big
    Codec ID                                 : A_DTS
    Duration                                 : 1 h 54 min
    Bit rate mode                            : Constant
    Bit rate                                 : 1 509 kb/s
    Channel(s)                               : 6 channels
    Channel positions                        : Front: L C R, Side: L R, LFE
    Sampling rate                            : 48.0 kHz
    Frame rate                               : 93.750 FPS (512 SPF)
    Bit depth                                : 24 bits
    Compression mode                         : Lossy
    Stream size                              : 1.21 GiB (17%)
    Language                                 : English
    Default                                  : No
    Forced                                   : No
    Statistics Tags Issue                    : mkvmerge v15.0.0 ('Duel with the Devil') 64-bit 2017-12-15 23:34:31 / mkvmerge v15.0.0 ('Duel with the Devil') 64-bit 2017-12-15 23:34:31 / UTC 2017-12-09T18:14:37Z
    FromStats_BitRate                        : 1508999
    FromStats_Duration                       : 01:54:58.891000000
    FromStats_FrameCount                     : 646771
    FromStats_StreamSize                     : 1301303252

    Text #1
    ID                                       : 4
    Format                                   : PGS
    Muxing mode                              : zlib
    Codec ID                                 : S_HDMV/PGS
    Codec ID/Info                            : Picture based subtitle format used on BDs/HD-DVDs
    Title                                    : Forzados
    Language                                 : Spanish
    Default                                  : Yes
    Forced                                   : No
    Statistics Tags Issue                    : mkvmerge v15.0.0 ('Duel with the Devil') 64-bit 2017-12-15 23:34:31 / mkvmerge v15.0.0 ('Duel with the Devil') 64-bit 2017-12-15 23:34:31 / UTC 2017-12-09T18:14:37Z
    FromStats_BitRate                        : 1138
    FromStats_Duration                       : 01:52:59.807000000
    FromStats_FrameCount                     : 100
    FromStats_StreamSize                     : 964824

    Text #2
    ID                                       : 5
    Format                                   : PGS
    Muxing mode                              : zlib
    Codec ID                                 : S_HDMV/PGS
    Codec ID/Info                            : Picture based subtitle format used on BDs/HD-DVDs
    Language                                 : Spanish
    Default                                  : No
    Forced                                   : No
    Statistics Tags Issue                    : mkvmerge v15.0.0 ('Duel with the Devil') 64-bit 2017-12-15 23:34:31 / mkvmerge v15.0.0 ('Duel with the Devil') 64-bit 2017-12-15 23:34:31 / UTC 2017-12-09T18:14:37Z
    FromStats_BitRate                        : 31393
    FromStats_Duration                       : 01:53:15.197000000
    FromStats_FrameCount                     : 2912
    FromStats_StreamSize                     : 26665848

    Menu
    00:00:00.000                             : :Chapter 1
    00:06:00.318                             : :Chapter 2
    00:10:42.517                             : :Chapter 3
    00:14:36.501                             : :Chapter 4
    00:21:19.612                             : :Chapter 5
    00:27:25.227                             : :Chapter 6
    00:33:47.692                             : :Chapter 7
    00:41:02.585                             : :Chapter 8
    00:46:16.023                             : :Chapter 9
    00:51:57.114                             : :Chapter 10
    00:54:59.713                             : :Chapter 11
    00:59:58.178                             : :Chapter 12
    01:07:29.837                             : :Chapter 13
    01:13:06.507                             : :Chapter 14
    01:17:12.878                             : :Chapter 15
    01:23:21.330                             : :Chapter 16
    01:26:16.713                             : :Chapter 17
    01:33:34.484                             : :Chapter 18
    01:38:39.455                             : :Chapter 19
    01:46:16.954                             : :Chapter 20

  • Peso: 6.93 GiB

Sinopsis

En la década de los años 80, después de haber trabajado como piloto de TWA, la mayor aerolínea estadounidense, Barry Seal (Tom Cruise) se ha convertido en un narcotraficante del cartel de Medellín. Posteriormente es reclutado por la CIA como mercenario para realizar labores de inteligencia para ellos. Además, se convierte en un informante de la DEA, la Administración para el Control de Drogas, debido a sus conocimientos en la materia.

Barry Seal: El traficante cuenta la historia real de este ex piloto que se puso al frente de una de las operaciones encubiertas de la CIA más importantes en la historia de los Estados Unidos. Esta hazaña, con la que se logró capturar a varios miembros del cartel de Medellín, estuvo cerca de provocar la caída del gobierno de la Casa Blanca durante la presidencia de Ronald Reagan, a causa del escándalo Irangate.

Esta película de acción basado en hechos reales está dirigida por Doug Liman (Al filo del mañanaCaza a la espíaThe Bourne Identity: El caso Bourne) y protagonizada por Tom Cruise (La momia, Jack Reacher: Nunca vuelvas atrásMisión: imposible – Nación secreta). Completan el reparto Sarah Wright (Men at WorkParks and Recreation), Domhnall Gleeson (El renacidoStar Wars: El despertar de la fuerza), E. Roger Mitchell (SullyTriple 9), Jesse Plemons (FargoEl puente de los espías) Caleb Landry Jones (Twin PeaksDéjame salir) y Lola Kirke (la serie Mozart in the JungleMistress America).

 

Creditos por Audio : Biyick

Solo audio LATINO BLURAY DTS 5.1

Ficha técnica

Video trailer de la película

Enlaces de descarga

Rip de Bluray

Descargar Barry Seal: solo en América (2017) Full 1080p Latino




Aportes de DPeliculasHDmega la pass es:dpeliculashdmega.org Aportes de CinemaniaHD la pass es:eatsouthward.com

Películas relacionadas

  • Batman Ninja (2018) WEB-DL 1080p Latino

    2018
    Batman Ninja (2018) WEB-DL 1080p Latino

    5.0 1h 25m 2018

    Batman, junto a sus aliados y enemigos, se ve transportado desde la moderna Gotham hasta el Japón feudal....

    Director: Junpei Mizusaki

    Género: Acción

    Actores: Yuuki Kaji

  • Niños del hombre (2006) Full 1080p Latino

    2006
    Niños del hombre (2006) Full 1080p Latino

    0.0 1 h 49 min 2006

    Año 2027: el ser humano está al borde de la extinción: los hombres han perdido la capacidad de procrear...

    Director: Terry Needham

    Género: Acción

    Actores: Yolanda Vazquez

  • Unlocked (2017) 1080p Latino

    2017
    Unlocked (2017) 1080p Latino

    3.0 1h 43m 2017

    Gira en torno a una agente de la CIA, especializada en interrogatorios, que es engañada por un sospechoso,...

    Director: Vera Homolacova

    Género: Acción

    Actores: Tosin Cole

  • Para atrapar al ladrón (1955) Full 1080p Latino

    1955
    Para atrapar al ladrón (1955) Full 1080p Latino

    0.0 1h 46m 1955

    A pesar de que John Robie "El Gato" (Cary Grant) es un ladrón de joyas reformado, se convierte en el...

    Director: Alfred Hitchcock

    Género: Crimen

    Actores: William 'Wee Willie' Davis

Comentarios 10
  • Eduardo Garza - 23 febrero, 2018

    Descarge la pelicula Barry Seal solo en America en la resolucion 1920x1080p, despues de descargar las 4 partes de la peliculas y extraerlas LA PELICULA NO TENIA AUDIO!! y lo volvi a extraer por si algo salio mal en la extraccion pero no fue haci la pelicula seguia sin tener AUDIO. Es la primera vez que me pasa eso descargando peliculas. Espero su respuesta pronto gracias.

    • dpelis - 01 abril, 2018

      la pelicula esta bien . ya le revisamos

  • Alex - 12 enero, 2018

    como puedo copiar las claves para descomprimir las peliculas. no logro copiarlas.
    gracias por la pagina las peliculas se ven de gran calidad. Saludos

    • dpelis - 12 enero, 2018

      debe escribir manual. eatsouthward.com o dpeliculashdmega.org cualquier de las dos

  • Jhefferson - 16 diciembre, 2017

    Tnx 😀

  • josue joel gomez - 16 diciembre, 2017

    no es la contraseña

    • dpelis - 16 diciembre, 2017

      pass
      eatsouthward.com
      todo minuscula y sin espacios.

      • jk2018 - 25 diciembre, 2017

        no es la contraseñal mi hermano sale error

        • dpelis - 25 diciembre, 2017

          si o si es la pass, debe ver tutorial como reparar rar corruptos aca en el sitio hay un tutorial. saludos

  • Jonna - 16 diciembre, 2017

    Gracias, bajando 🙂

-->