Barry Seal: solo en América (2017) 1080p Latino

1.742 vistas
1 estrella2 estrellas3 estrellas4 estrellas5 estrellas (1 votos, promedio: 5,00 de 5)
Cargando…

Información de Barry Seal: solo en América (2017) 1080p Latino

Datos de la película

  • Calidad: 1080p
  • Audio: Español Latino AC3 2.0 DVD - Ingles AC3 5.1 BLURAY
  • Subtitulos: Español Latino SRT
  • Resolución: 1920X1040
  • Formato: MKV
  • Codec: H.264
  • Encoder: CinemaniaHD
  • Mediainfo: Clic para Mostrar Datos Ver
  • Format                                   : Matroska
    Format version                           : Version 4 / Version 2
    File size                                : 3.46 GiB
    Duration                                 : 1 h 54 min
    Overall bit rate                         : 4 309 kb/s
    Movie name                               : CinemaniaHDD.com
    Encoded date                             : UTC 2017-12-14 21:42:03 / UTC 2017-12-05T00:53:26Z
    Writing application                      : mkvmerge v15.0.0 ('Duel with the Devil') 64-bit
    Writing library                          : libebml v1.3.5 + libmatroska v1.4.5 / Lavf57.7.2

    Video
    ID                                       : 1
    Format                                   : AVC
    Format/Info                              : Advanced Video Codec
    Format profile                           : [email protected]
    Format settings                          : CABAC / 4 Ref Frames
    Format settings, CABAC                   : Yes
    Format settings, RefFrames               : 4 frames
    Codec ID                                 : V_MPEG4/ISO/AVC
    Duration                                 : 1 h 54 min
    Bit rate                                 : 3 500 kb/s
    Width                                    : 1 920 pixels
    Height                                   : 1 040 pixels
    Display aspect ratio                     : 1.85:1
    Frame rate mode                          : Constant
    Frame rate                               : 23.976 (24000/1001) FPS
    Color space                              : YUV
    Chroma subsampling                       : 4:2:0
    Bit depth                                : 8 bits
    Scan type                                : Progressive
    Bits/(Pixel*Frame)                       : 0.073
    Stream size                              : 2.72 GiB (79%)
    Title                                    : Barry Seal: solo en América
    Writing library                          : x264 core 148 r2708 86b7198
    Encoding settings                        : cabac=1 / ref=4 / deblock=1:0:0 / analyse=0x3:0x113 / me=umh / subme=8 / psy=1 / psy_rd=1.00:0.00 / mixed_ref=1 / me_range=16 / chroma_me=1 / trellis=1 / 8x8dct=1 / cqm=0 / deadzone=21,11 / fast_pskip=1 / chroma_qp_offset=-2 / threads=32 / lookahead_threads=5 / sliced_threads=0 / nr=0 / decimate=1 / interlaced=0 / bluray_compat=0 / constrained_intra=0 / bframes=3 / b_pyramid=2 / b_adapt=2 / b_bias=0 / direct=3 / weightb=1 / open_gop=0 / weightp=2 / keyint=240 / keyint_min=24 / scenecut=40 / intra_refresh=0 / rc_lookahead=50 / rc=abr / mbtree=1 / bitrate=3500 / ratetol=1.0 / qcomp=0.60 / qpmin=0 / qpmax=69 / qpstep=4 / vbv_maxrate=62500 / vbv_bufsize=78125 / nal_hrd=none / filler=0 / ip_ratio=1.40 / aq=1:1.00
    Language                                 : English
    Default                                  : Yes
    Forced                                   : No
    Color range                              : Limited
    Color primaries                          : BT.709
    Transfer characteristics                 : BT.709
    Matrix coefficients                      : BT.709
    Statistics Tags Issue                    : mkvmerge v15.0.0 ('Duel with the Devil') 64-bit 2017-12-14 21:42:03 / mkvmerge v15.0.0 ('Duel with the Devil') 64-bit 2017-12-14 21:42:03 / UTC 2017-12-05T00:53:26Z
    FromStats_BitRate                        : 3475302
    FromStats_Duration                       : 01:54:58.851000000
    FromStats_FrameCount                     : 165407
    FromStats_StreamSize                     : 2996949351

    Audio #1
    ID                                       : 2
    Format                                   : AC-3
    Format/Info                              : Audio Coding 3
    Format settings, Endianness              : Big
    Codec ID                                 : A_AC3
    Duration                                 : 1 h 54 min
    Bit rate mode                            : Constant
    Bit rate                                 : 448 kb/s
    Channel(s)                               : 6 channels
    Channel positions                        : Front: L C R, Side: L R, LFE
    Sampling rate                            : 48.0 kHz
    Frame rate                               : 31.250 FPS (1536 SPF)
    Bit depth                                : 16 bits
    Compression mode                         : Lossy
    Delay relative to video                  : 195 ms
    Stream size                              : 368 MiB (10%)
    Language                                 : Spanish
    Service kind                             : Complete Main
    Default                                  : Yes
    Forced                                   : No
    Statistics Tags Issue                    : mkvmerge v15.0.0 ('Duel with the Devil') 64-bit 2017-12-14 21:42:03 / mkvmerge v15.0.0 ('Duel with the Devil') 64-bit 2017-12-14 21:42:03 / UTC 2017-12-05T00:53:26Z
    FromStats_BitRate                        : 448000
    FromStats_Duration                       : 01:54:44.640000000
    FromStats_FrameCount                     : 215145
    FromStats_StreamSize                     : 385539840

    Audio #2
    ID                                       : 3
    Format                                   : AC-3
    Format/Info                              : Audio Coding 3
    Format settings, Endianness              : Big
    Codec ID                                 : A_AC3
    Duration                                 : 1 h 54 min
    Bit rate mode                            : Constant
    Bit rate                                 : 384 kb/s
    Channel(s)                               : 6 channels
    Channel positions                        : Front: L C R, Side: L R, LFE
    Sampling rate                            : 48.0 kHz
    Frame rate                               : 31.250 FPS (1536 SPF)
    Bit depth                                : 16 bits
    Compression mode                         : Lossy
    Delay relative to video                  : -5 ms
    Stream size                              : 316 MiB (9%)
    Language                                 : English
    Service kind                             : Complete Main
    Default                                  : No
    Forced                                   : No
    Statistics Tags Issue                    : mkvmerge v15.0.0 ('Duel with the Devil') 64-bit 2017-12-14 21:42:03 / mkvmerge v15.0.0 ('Duel with the Devil') 64-bit 2017-12-14 21:42:03 / UTC 2017-12-05T00:53:26Z
    FromStats_BitRate                        : 384000
    FromStats_Duration                       : 01:54:58.880000000
    FromStats_FrameCount                     : 215590
    FromStats_StreamSize                     : 331146240

    Text
    ID                                       : 4
    Format                                   : UTF-8
    Codec ID                                 : S_TEXT/UTF8
    Codec ID/Info                            : UTF-8 Plain Text
    Language                                 : Spanish
    Default                                  : Yes
    Forced                                   : No
    Statistics Tags Issue                    : mkvmerge v15.0.0 ('Duel with the Devil') 64-bit 2017-12-14 21:42:03 / mkvmerge v15.0.0 ('Duel with the Devil') 64-bit 2017-12-14 21:42:03 / UTC 2017-12-05T00:53:26Z
    FromStats_BitRate                        : 61
    FromStats_Duration                       : 01:46:46.998000000
    FromStats_FrameCount                     : 1464
    FromStats_StreamSize                     : 49111

    Menu
    00:00:00.000                             : :00:00:00.000
    00:06:00.318                             : :00:06:00.318
    00:10:42.517                             : :00:10:42.517
    00:14:36.501                             : :00:14:36.501
    00:21:19.612                             : :00:21:19.612
    00:27:25.227                             : :00:27:25.227
    00:33:47.692                             : :00:33:47.692
    00:41:02.585                             : :00:41:02.585
    00:46:16.023                             : :00:46:16.023
    00:51:57.114                             : :00:51:57.114
    00:54:59.713                             : :00:54:59.713
    00:59:58.178                             : :00:59:58.178
    01:07:29.837                             : :01:07:29.837
    01:13:06.507                             : :01:13:06.507
    01:17:12.878                             : :01:17:12.878
    01:23:21.330                             : :01:23:21.330
    01:26:16.713                             : :01:26:16.713
    01:33:34.484                             : :01:33:34.484
    01:38:39.455                             : :01:38:39.455
    01:46:16.954                             : :01:46:16.954

  • Peso: 3.46 GiB

Sinopsis

Basada en la vida real de Barry Seal, un expiloto que se convirtió en un importante narcotraficante en el cartel de Medellín y que acabó siendo reclutado por la CIA y el departamento de inteligencia de la DEA.

Ficha técnica

Video trailer de la película

Enlaces de descarga

Rip de Bluray

Descargar Barry Seal: solo en América (2017) 1080p Latino




Aportes de DPeliculasHDmega la pass es:dpeliculashdmega.org Aportes de CinemaniaHD la pass es:eatsouthward.com
Guardado en : Acción , Comedia , Crimen , Historia

Películas relacionadas

  • Batman Ninja (2018) WEB-DL 1080p Latino

    2018
    Batman Ninja (2018) WEB-DL 1080p Latino

    5.0 1h 25m 2018

    Batman, junto a sus aliados y enemigos, se ve transportado desde la moderna Gotham hasta el Japón feudal....

    Director: Junpei Mizusaki

    Género: Acción

    Actores: Yuuki Kaji

  • Niños del hombre (2006) Full 1080p Latino

    2006
    Niños del hombre (2006) Full 1080p Latino

    0.0 1 h 49 min 2006

    Año 2027: el ser humano está al borde de la extinción: los hombres han perdido la capacidad de procrear...

    Director: Terry Needham

    Género: Acción

    Actores: Yolanda Vazquez

  • Unlocked (2017) 1080p Latino

    2017
    Unlocked (2017) 1080p Latino

    3.0 1h 43m 2017

    Gira en torno a una agente de la CIA, especializada en interrogatorios, que es engañada por un sospechoso,...

    Director: Vera Homolacova

    Género: Acción

    Actores: Tosin Cole

  • Para atrapar al ladrón (1955) Full 1080p Latino

    1955
    Para atrapar al ladrón (1955) Full 1080p Latino

    0.0 1h 46m 1955

    A pesar de que John Robie "El Gato" (Cary Grant) es un ladrón de joyas reformado, se convierte en el...

    Director: Alfred Hitchcock

    Género: Crimen

    Actores: William 'Wee Willie' Davis

Comentarios 8
  • piero - 17 diciembre, 2017

    hola les queria agradecer por la gran calidad de todas sus peliculas y les queria preguntar si tienen pensado subir las otras peliculas de marvel ya que subieron las de iron man y los vengadores …..saludos

    • Dpelis2 - 17 diciembre, 2017

      claro que si en algunas semanas mas se subirán todas. Saludos

  • Brian - 16 diciembre, 2017

    Hola, creo que me habias dicho que a las plateadas le iban a poner los subtitulos srt por fuera, pero ni a linea mortal, la montaña entre nosotros le pusiste. gracias

    • Dpelis2 - 16 diciembre, 2017

      Los puedes agregar fácilmente descargandolos de esta pagina http://www.subdivx.com Saludos

      • Brian - 28 diciembre, 2017

        Hola , si se que por ahi bajas subtitulos, pero bueno es lo que habia dicho que ibas hacer para el futuro. saludos

  • Cristo - 15 diciembre, 2017

    Ya por estos dias subirán IT verdad?

    • Dpelis2 - 15 diciembre, 2017

      cuando salga en latino si.

  • sebas - 15 diciembre, 2017

    esperando la gris =) ojalá no quede tan pesada.

    gracias

-->