Asesinato en la montaña (1975) Full 1080p Latino

595 vistas
1 estrella2 estrellas3 estrellas4 estrellas5 estrellas (1 votos, promedio: 5,00 de 5)
Cargando…

Información de Asesinato en la montaña (1975) Full 1080p Latino

Datos de la película

  • Calidad: Full 1080p
  • Audio: Español Latino DTS 2.0 BLURAY - Ingles DTS 2.0 BLURAY
  • Subtitulos: Español Latino PGS - Ingles PGS
  • Resolución: 1920x1080p
  • Formato: MKV
  • Codec: H.264
  • Encoder: Dracarys
  • Mediainfo: Clic para Mostrar Datos Ver
  • Format                                   : Matroska
    Format version                           : Version 4 / Version 2
    File size                                : 9.64 GiB
    Duration                                 : 2 h 8 min
    Overall bit rate                         : 10.7 Mb/s
    Movie name                               : CinemaniaHDD.com
    Encoded date                             : UTC 2018-04-04 04:21:30 / UTC 2018-03-31T07:34:41Z
    Writing application                      : mkvmerge v15.0.0 ('Duel with the Devil') 64-bit
    Writing library                          : libebml v1.3.5 + libmatroska v1.4.5 / Lavf57.7.2

    Video
    ID                                       : 1
    Format                                   : AVC
    Format/Info                              : Advanced Video Codec
    Format profile                           : [email protected]
    Format settings                          : CABAC / 4 Ref Frames
    Format settings, CABAC                   : Yes
    Format settings, RefFrames               : 4 frames
    Codec ID                                 : V_MPEG4/ISO/AVC
    Duration                                 : 2 h 8 min
    Bit rate                                 : 8 542 kb/s
    Width                                    : 1 920 pixels
    Height                                   : 1 080 pixels
    Display aspect ratio                     : 16:9
    Frame rate mode                          : Constant
    Frame rate                               : 23.976 (24000/1001) FPS
    Color space                              : YUV
    Chroma subsampling                       : 4:2:0
    Bit depth                                : 8 bits
    Scan type                                : Progressive
    Bits/(Pixel*Frame)                       : 0.172
    Stream size                              : 7.69 GiB (80%)
    Title                                    : Asesinato en la montaña (1975) Full 1080p Latino
    Writing library                          : x264 core 148 r2708 86b7198
    Encoding settings                        : cabac=1 / ref=4 / deblock=1:0:0 / analyse=0x3:0x133 / me=esa / subme=9 / psy=1 / psy_rd=1.00:0.00 / mixed_ref=1 / me_range=16 / chroma_me=1 / trellis=2 / 8x8dct=1 / cqm=0 / deadzone=21,11 / fast_pskip=1 / chroma_qp_offset=-2 / threads=34 / lookahead_threads=2 / sliced_threads=0 / nr=0 / decimate=1 / interlaced=0 / bluray_compat=0 / constrained_intra=0 / bframes=3 / b_pyramid=2 / b_adapt=2 / b_bias=0 / direct=3 / weightb=1 / open_gop=0 / weightp=2 / keyint=240 / keyint_min=24 / scenecut=40 / intra_refresh=0 / rc_lookahead=60 / rc=crf / mbtree=1 / crf=20.0 / qcomp=0.60 / qpmin=0 / qpmax=69 / qpstep=4 / vbv_maxrate=62500 / vbv_bufsize=78125 / crf_max=0.0 / nal_hrd=none / filler=0 / ip_ratio=1.40 / aq=1:1.00
    Language                                 : English
    Default                                  : Yes
    Forced                                   : No
    Color range                              : Limited
    Color primaries                          : BT.709
    Transfer characteristics                 : BT.709
    Matrix coefficients                      : BT.709
    Statistics Tags Issue                    : mkvmerge v15.0.0 ('Duel with the Devil') 64-bit 2018-04-04 04:21:30 / mkvmerge v15.0.0 ('Duel with the Devil') 64-bit 2018-04-04 04:21:30 / UTC 2018-03-31T07:34:41Z
    FromStats_BitRate                        : 8732082
    FromStats_Duration                       : 02:08:52.725000000
    FromStats_FrameCount                     : 185400
    FromStats_StreamSize                     : 8440348978

    Audio #1
    ID                                       : 2
    Format                                   : DTS
    Format/Info                              : Digital Theater Systems
    Mode                                     : 16
    Format settings, Endianness              : Big
    Codec ID                                 : A_DTS
    Duration                                 : 2 h 8 min
    Bit rate mode                            : Constant
    Bit rate                                 : 447 kb/s
    Channel(s)                               : 2 channels
    Channel positions                        : Front: L R
    Sampling rate                            : 48.0 kHz
    Frame rate                               : 93.750 FPS (512 SPF)
    Bit depth                                : 24 bits
    Compression mode                         : Lossy
    Stream size                              : 412 MiB (4%)
    Language                                 : Spanish
    Default                                  : Yes
    Forced                                   : No
    Statistics Tags Issue                    : mkvmerge v15.0.0 ('Duel with the Devil') 64-bit 2018-04-04 04:21:30 / mkvmerge v15.0.0 ('Duel with the Devil') 64-bit 2018-04-04 04:21:30 / UTC 2018-03-31T07:34:41Z
    FromStats_BitRate                        : 447000
    FromStats_Duration                       : 02:08:52.576000000
    FromStats_FrameCount                     : 724929
    FromStats_StreamSize                     : 432057684

    Audio #2
    ID                                       : 3
    Format                                   : DTS
    Format/Info                              : Digital Theater Systems
    Mode                                     : 16
    Format settings, Endianness              : Big
    Codec ID                                 : A_DTS
    Duration                                 : 2 h 8 min
    Bit rate mode                            : Constant
    Bit rate                                 : 1 509 kb/s
    Channel(s)                               : 2 channels
    Channel positions                        : Front: L R
    Sampling rate                            : 48.0 kHz
    Frame rate                               : 93.750 FPS (512 SPF)
    Bit depth                                : 24 bits
    Compression mode                         : Lossy
    Stream size                              : 1.36 GiB (14%)
    Language                                 : English
    Default                                  : No
    Forced                                   : No
    Statistics Tags Issue                    : mkvmerge v15.0.0 ('Duel with the Devil') 64-bit 2018-04-04 04:21:30 / mkvmerge v15.0.0 ('Duel with the Devil') 64-bit 2018-04-04 04:21:30 / UTC 2018-03-31T07:34:41Z
    FromStats_BitRate                        : 1508999
    FromStats_Duration                       : 02:08:52.043000000
    FromStats_FrameCount                     : 724879
    FromStats_StreamSize                     : 1458456548

    Text #1
    ID                                       : 4
    Format                                   : PGS
    Muxing mode                              : zlib
    Codec ID                                 : S_HDMV/PGS
    Codec ID/Info                            : Picture based subtitle format used on BDs/HD-DVDs
    Language                                 : English
    Default                                  : No
    Forced                                   : No
    Statistics Tags Issue                    : mkvmerge v15.0.0 ('Duel with the Devil') 64-bit 2018-04-04 04:21:30 / mkvmerge v15.0.0 ('Duel with the Devil') 64-bit 2018-04-04 04:21:30 / UTC 2018-03-31T07:34:41Z
    FromStats_BitRate                        : 36761
    FromStats_Duration                       : 02:05:32.942000000
    FromStats_FrameCount                     : 2946
    FromStats_StreamSize                     : 34614834

    Text #2
    ID                                       : 5
    Format                                   : PGS
    Muxing mode                              : zlib
    Codec ID                                 : S_HDMV/PGS
    Codec ID/Info                            : Picture based subtitle format used on BDs/HD-DVDs
    Language                                 : Spanish
    Default                                  : No
    Forced                                   : No
    Statistics Tags Issue                    : mkvmerge v15.0.0 ('Duel with the Devil') 64-bit 2018-04-04 04:21:30 / mkvmerge v15.0.0 ('Duel with the Devil') 64-bit 2018-04-04 04:21:30 / UTC 2018-03-31T07:34:41Z
    FromStats_BitRate                        : 34519
    FromStats_Duration                       : 02:01:03.298000000
    FromStats_FrameCount                     : 2730
    FromStats_StreamSize                     : 31340478

    Menu
    00:00:00.000                             : :Chapter 1
    00:09:03.251                             : :Chapter 2
    00:13:14.961                             : :Chapter 3
    00:17:59.787                             : :Chapter 4
    00:22:35.521                             : :Chapter 5
    00:30:10.475                             : :Chapter 6
    00:40:31.721                             : :Chapter 7
    00:58:51.403                             : :Chapter 8
    01:06:14.804                             : :Chapter 9
    01:19:00.402                             : :Chapter 10
    01:31:45.917                             : :Chapter 11
    01:42:52.958                             : :Chapter 12
    01:47:10.925                             : :Chapter 13
    01:54:17.559                             : :Chapter 14
    01:59:59.943                             : :Chapter 15
    02:06:39.801                             : :Chapter 16

  • Peso: 9.64 GiB

Sinopsis

Jonathan Hemlock es un profesor de historia del arte que, anteriormente, llevaba una peligrosa doble vida como asesino a sueldo para una organización secreta internacional. Sin embargo, ahora será chantajeado para llevar a cabo una última misión: la víctima será una de las tres personas que intentan la ascensión al Eiger, una peligrosa cumbre de los Alpes Suizos

Ficha técnica

Video trailer de la película

Enlaces de descarga

Rip de Bluray

Descargar Asesinato en la montaña (1975) Full 1080p Latino




Aportes de DPeliculasHDmega la pass es:dpeliculashdmega.org Aportes de CinemaniaHD la pass es:eatsouthward.com

Películas relacionadas

  • Cincuenta sombras liberadas (2018) WEB-DL Latino

    2018
    Cincuenta sombras liberadas (2018) WEB-DL Latino

    0.0 1h 45m 2018

    Creyendo que han dejado atrás las sombras del pasado, los recién casados Christian y Anastasia disfrutan...

    Director: James Foley

    Género: Drama

    Actores: Tyler Hoechlin

  • Batman Ninja (2018) WEB-DL 1080p Latino

    2018
    Batman Ninja (2018) WEB-DL 1080p Latino

    5.0 1h 25m 2018

    Batman, junto a sus aliados y enemigos, se ve transportado desde la moderna Gotham hasta el Japón feudal....

    Director: Junpei Mizusaki

    Género: Acción

    Actores: Yuuki Kaji

  • Niños del hombre (2006) Full 1080p Latino

    2006
    Niños del hombre (2006) Full 1080p Latino

    0.0 1 h 49 min 2006

    Año 2027: el ser humano está al borde de la extinción: los hombres han perdido la capacidad de procrear...

    Director: Terry Needham

    Género: Acción

    Actores: Yolanda Vazquez

  • Amateur (2018) NF Webrip 1080p Latino

    2018
    Amateur (2018) NF Webrip 1080p Latino

    0.0 1h 36m 2018

    Un joven jugador de baloncesto se enfrenta a las dificultades de encajar en el nuevo equipo. Adaptación...

    Director: Ryan Koo

    Género: Drama

    Actores: Tekola Cornetet

Comentarios 0
-->