All Saints (2017) 1080p Latino

666 vistas
1 estrella2 estrellas3 estrellas4 estrellas5 estrellas (Ninguna valoración todavía)
Cargando…

Información de All Saints (2017) 1080p Latino

Datos de la película

  • Calidad: 1080p
  • Audio: Español Latino AC3 5.1 DVD - Ingles AC3 5.1 BLURAY
  • Subtitulos: Español Latino SRT
  • Resolución: 1920X808p
  • Formato: MKV
  • Codec: H.264
  • Encoder: Dracarys
  • Mediainfo: Clic para Mostrar Datos Ver
  • Format                                   : Matroska
    Format version                           : Version 4 / Version 2
    File size                                : 3.29 GiB
    Duration                                 : 1 h 48 min
    Overall bit rate                         : 4 324 kb/s
    Movie name                               : CinemaniaHDD.com
    Encoded date                             : UTC 2017-12-23 22:23:07 / UTC 2017-12-23T21:41:39Z
    Writing application                      : mkvmerge v15.0.0 ('Duel with the Devil') 64-bit
    Writing library                          : libebml v1.3.5 + libmatroska v1.4.5 / Lavf57.7.2

    Video
    ID                                       : 1
    Format                                   : AVC
    Format/Info                              : Advanced Video Codec
    Format profile                           : [email protected]
    Format settings                          : CABAC / 5 Ref Frames
    Format settings, CABAC                   : Yes
    Format settings, RefFrames               : 5 frames
    Codec ID                                 : V_MPEG4/ISO/AVC
    Duration                                 : 1 h 48 min
    Bit rate                                 : 3 500 kb/s
    Width                                    : 1 920 pixels
    Height                                   : 808 pixels
    Display aspect ratio                     : 2.40:1
    Frame rate mode                          : Constant
    Frame rate                               : 23.976 (24000/1001) FPS
    Color space                              : YUV
    Chroma subsampling                       : 4:2:0
    Bit depth                                : 8 bits
    Scan type                                : Progressive
    Bits/(Pixel*Frame)                       : 0.094
    Stream size                              : 2.59 GiB (79%)
    Writing library                          : x264 core 148 r2708 86b7198
    Encoding settings                        : cabac=1 / ref=5 / deblock=1:0:0 / analyse=0x3:0x113 / me=umh / subme=8 / psy=1 / psy_rd=1.00:0.00 / mixed_ref=1 / me_range=16 / chroma_me=1 / trellis=1 / 8x8dct=1 / cqm=0 / deadzone=21,11 / fast_pskip=1 / chroma_qp_offset=-2 / threads=25 / lookahead_threads=4 / sliced_threads=0 / nr=0 / decimate=1 / interlaced=0 / bluray_compat=0 / constrained_intra=0 / bframes=3 / b_pyramid=2 / b_adapt=2 / b_bias=0 / direct=3 / weightb=1 / open_gop=0 / weightp=2 / keyint=240 / keyint_min=24 / scenecut=40 / intra_refresh=0 / rc_lookahead=50 / rc=abr / mbtree=1 / bitrate=3500 / ratetol=1.0 / qcomp=0.60 / qpmin=0 / qpmax=69 / qpstep=4 / vbv_maxrate=62500 / vbv_bufsize=78125 / nal_hrd=none / filler=0 / ip_ratio=1.40 / aq=1:1.00
    Language                                 : English
    Default                                  : Yes
    Forced                                   : No
    Color range                              : Limited
    Color primaries                          : BT.709
    Transfer characteristics                 : BT.709
    Matrix coefficients                      : BT.709
    Statistics Tags Issue                    : mkvmerge v15.0.0 ('Duel with the Devil') 64-bit 2017-12-23 22:23:07 / mkvmerge v15.0.0 ('Duel with the Devil') 64-bit 2017-12-23 22:23:07 / UTC 2017-12-23T21:41:39Z
    FromStats_BitRate                        : 3489702
    FromStats_Duration                       : 01:48:49.523000000
    FromStats_FrameCount                     : 156552
    FromStats_StreamSize                     : 2848261302

    Audio #1
    ID                                       : 2
    Format                                   : AC-3
    Format/Info                              : Audio Coding 3
    Format settings, Endianness              : Big
    Codec ID                                 : A_AC3
    Duration                                 : 1 h 48 min
    Bit rate mode                            : Constant
    Bit rate                                 : 448 kb/s
    Channel(s)                               : 6 channels
    Channel positions                        : Front: L C R, Side: L R, LFE
    Sampling rate                            : 48.0 kHz
    Frame rate                               : 31.250 FPS (1536 SPF)
    Bit depth                                : 16 bits
    Compression mode                         : Lossy
    Delay relative to video                  : -5 ms
    Stream size                              : 349 MiB (10%)
    Language                                 : Spanish
    Service kind                             : Complete Main
    Default                                  : Yes
    Forced                                   : No
    Statistics Tags Issue                    : mkvmerge v15.0.0 ('Duel with the Devil') 64-bit 2017-12-23 22:23:07 / mkvmerge v15.0.0 ('Duel with the Devil') 64-bit 2017-12-23 22:23:07 / UTC 2017-12-23T21:41:39Z
    FromStats_BitRate                        : 448000
    FromStats_Duration                       : 01:48:49.504000000
    FromStats_FrameCount                     : 204047
    FromStats_StreamSize                     : 365652224

    Audio #2
    ID                                       : 3
    Format                                   : AC-3
    Format/Info                              : Audio Coding 3
    Format settings, Endianness              : Big
    Codec ID                                 : A_AC3
    Duration                                 : 1 h 48 min
    Bit rate mode                            : Constant
    Bit rate                                 : 384 kb/s
    Channel(s)                               : 6 channels
    Channel positions                        : Front: L C R, Side: L R, LFE
    Sampling rate                            : 48.0 kHz
    Frame rate                               : 31.250 FPS (1536 SPF)
    Bit depth                                : 16 bits
    Compression mode                         : Lossy
    Delay relative to video                  : -5 ms
    Stream size                              : 299 MiB (9%)
    Language                                 : English
    Service kind                             : Complete Main
    Default                                  : No
    Forced                                   : No
    Statistics Tags Issue                    : mkvmerge v15.0.0 ('Duel with the Devil') 64-bit 2017-12-23 22:23:07 / mkvmerge v15.0.0 ('Duel with the Devil') 64-bit 2017-12-23 22:23:07 / UTC 2017-12-23T21:41:39Z
    FromStats_BitRate                        : 384000
    FromStats_Duration                       : 01:48:49.504000000
    FromStats_FrameCount                     : 204047
    FromStats_StreamSize                     : 313416192

    Text
    ID                                       : 4
    Format                                   : UTF-8
    Codec ID                                 : S_TEXT/UTF8
    Codec ID/Info                            : UTF-8 Plain Text
    Language                                 : Spanish
    Default                                  : No
    Forced                                   : No
    Statistics Tags Issue                    : mkvmerge v15.0.0 ('Duel with the Devil') 64-bit 2017-12-23 22:23:07 / mkvmerge v15.0.0 ('Duel with the Devil') 64-bit 2017-12-23 22:23:07 / UTC 2017-12-23T21:41:39Z
    FromStats_BitRate                        : 62
    FromStats_Duration                       : 01:43:22.887000000
    FromStats_FrameCount                     : 1330
    FromStats_StreamSize                     : 48485

    Menu
    00:00:00.000                             : : Chapter 1
    00:08:45.775                             : : Chapter 2
    00:13:58.171                             : : Chapter 3
    00:23:04.717                             : : Chapter 4
    00:28:44.348                             : : Chapter 5
    00:34:52.924                             : : Chapter 6
    00:39:03.049                             : : Chapter 7
    00:46:35.751                             : : Chapter 8
    00:51:14.863                             : : Chapter 9
    00:56:59.374                             : : Chapter 10
    01:00:06.269                             : : Chapter 11
    01:09:57.652                             : : Chapter 12
    01:16:28.167                             : : Chapter 13
    01:22:11.260                             : : Chapter 14
    01:27:56.646                             : : Chapter 15
    01:35:54.457                             : : Chapter 16

  • Peso: 3.29 GiB

Sinopsis

Basada en la historia real de Michael Spurlock (John Corbett), un hombre de negocios reconvertido en pastor que cuida de una pequeña iglesia y de un grupo de refugiados del sudeste asiático.

Ficha técnica

  • Titulo original: All Saints
  • Fecha de lanzamiento: 25-08-2017 (United States of America)
  • Director: Steve Gomer
  • Género: Drama
  • Puntuación: 0.0 0 votos
  • Duración:
    1 h 48 min

Video trailer de la película

Enlaces de descarga

Rip de Bluray

Descargar All Saints (2017) 1080p Latino




Aportes de DPeliculasHDmega la pass es:dpeliculashdmega.org Aportes de CinemaniaHD la pass es:eatsouthward.com
Guardado en : Drama

Películas relacionadas

  • Cincuenta sombras liberadas (2018) WEB-DL Latino

    2018
    Cincuenta sombras liberadas (2018) WEB-DL Latino

    0.0 1h 45m 2018

    Creyendo que han dejado atrás las sombras del pasado, los recién casados Christian y Anastasia disfrutan...

    Director: James Foley

    Género: Drama

    Actores: Tyler Hoechlin

  • Niños del hombre (2006) Full 1080p Latino

    2006
    Niños del hombre (2006) Full 1080p Latino

    0.0 1 h 49 min 2006

    Año 2027: el ser humano está al borde de la extinción: los hombres han perdido la capacidad de procrear...

    Director: Terry Needham

    Género: Acción

    Actores: Yolanda Vazquez

  • Amateur (2018) NF Webrip 1080p Latino

    2018
    Amateur (2018) NF Webrip 1080p Latino

    0.0 1h 36m 2018

    Un joven jugador de baloncesto se enfrenta a las dificultades de encajar en el nuevo equipo. Adaptación...

    Director: Ryan Koo

    Género: Drama

    Actores: Tekola Cornetet

  • Para atrapar al ladrón (1955) Full 1080p Latino

    1955
    Para atrapar al ladrón (1955) Full 1080p Latino

    0.0 1h 46m 1955

    A pesar de que John Robie "El Gato" (Cary Grant) es un ladrón de joyas reformado, se convierte en el...

    Director: Alfred Hitchcock

    Género: Crimen

    Actores: William 'Wee Willie' Davis

  • Si decido quedarme (2014) Full 1080p Latino

    2014
    Si decido quedarme (2014) Full 1080p Latino

    5.0 1 h 46 min 2014

    Mia es una joven de 17 años que parece tenerlo todo en la vida: una famila adorable, un novio que la...

    Director: R.J. Cutler

    Género: Drama

    Actores: William C. Vaughan

Comentarios 4
  • snj - 29 diciembre, 2017

    Hola
    saldrá audio del BD?

    • Dpelis2 - 29 diciembre, 2017

      esperamos que si, por el momento no se sabe nada

  • jamrp2016 - 24 diciembre, 2017

    Hola no estan usando mas uploaded.to? uptbox?

    • Dpelis2 - 24 diciembre, 2017

      hace ya meses que no se usan.

-->