2:22 (2017) 1080p Latino

2.320 vistas
1 estrella2 estrellas3 estrellas4 estrellas5 estrellas (Ninguna valoración todavía)
Cargando…

Información de 2:22 (2017) 1080p Latino

Datos de la película

  • Calidad: 1080p
  • Audio: Español Latino AC3 5.1 DVD - Ingles AC3 5.1 BLURAY
  • Subtitulos: Español Latino SRT
  • Resolución: 1920x804p
  • Formato: MKV
  • Codec: H.264
  • Encoder: Dpelis
  • Mediainfo: Clic para Mostrar Datos Ver
  • 2 22 (2017) 1080p Latino.mkv
    Format                      : Matroska
    Format version              : Version 4 / Version 2
    File size                   : 2.86 GiB
    Duration                    : 1 h 38 min
    Overall bit rate            : 4 147 kb/s
    Movie name                  : DPeliculasHDMeg.,ORG
    Encoded date                : UTC 2017-09-25 03:19:54 / UTC 2017-09-17T18:18:32Z
    Writing application         : mkvmerge v10.0.0 ('To Drown In You') 64bit
    Writing library             : libebml v1.3.4 + libmatroska v1.4.5 / Lavf57.7.2

    Video
    ID                          : 1
    Format                      : AVC
    Format/Info                 : Advanced Video Codec
    Format profile              : [email protected]
    Format settings, CABAC      : Yes
    Format settings, RefFrames  : 5 frames
    Codec ID                    : V_MPEG4/ISO/AVC
    Duration                    : 1 h 38 min
    Bit rate                    : 3 296 kb/s
    Nominal bit rate            : 3 500 kb/s
    Width                       : 1 920 pixels
    Height                      : 804 pixels
    Display aspect ratio        : 2.40:1
    Frame rate mode             : Constant
    Frame rate                  : 23.976 (24000/1001) FPS
    Color space                 : YUV
    Chroma subsampling          : 4:2:0
    Bit depth                   : 8 bits
    Scan type                   : Progressive
    Bits/(Pixel*Frame)          : 0.089
    Stream size                 : 2.28 GiB (79%)
    Writing library             : x264 core 148 r2708 86b7198
    Encoding settings           : cabac=1 / ref=5 / deblock=1:0:0 / analyse=0x3:0x113 / me=umh / subme=8 / psy=1 / psy_rd=1.00:0.00 / mixed_ref=1 / me_range=16 / chroma_me=1 / trellis=1 / 8x8dct=1 / cqm=0 / deadzone=21,11 / fast_pskip=1 / chroma_qp_offset=-2 / threads=12 / lookahead_threads=2 / sliced_threads=0 / nr=0 / decimate=1 / interlaced=0 / bluray_compat=0 / constrained_intra=0 / bframes=3 / b_pyramid=2 / b_adapt=2 / b_bias=0 / direct=3 / weightb=1 / open_gop=0 / weightp=2 / keyint=240 / keyint_min=24 / scenecut=40 / intra_refresh=0 / rc_lookahead=50 / rc=abr / mbtree=1 / bitrate=3500 / ratetol=1.0 / qcomp=0.60 / qpmin=0 / qpmax=69 / qpstep=4 / vbv_maxrate=62500 / vbv_bufsize=78125 / nal_hrd=none / filler=0 / ip_ratio=1.40 / aq=1:1.00
    Default                     : Yes
    Forced                      : No
    Color range                 : Limited
    Color primaries             : BT.709
    Transfer characteristics    : BT.709
    Matrix coefficients         : BT.709
    Statistics Tags Issue       : mkvmerge v10.0.0 ('To Drown In You') 64bit 2017-09-25 03:19:54 / mkvmerge v10.0.0 ('To Drown In You') 64bit 2017-09-25 03:19:54 / UTC 2017-09-17T18:18:32Z
    FromStats_BitRate           : 3376861
    FromStats_Duration          : 01:38:53.845000000
    FromStats_FrameCount        : 142270
    FromStats_StreamSize        : 2504721344

    Audio #1
    ID                          : 2
    Format                      : AC-3
    Format/Info                 : Audio Coding 3
    Format settings, Endianness : Big
    Codec ID                    : A_AC3
    Duration                    : 1 h 38 min
    Bit rate mode               : Constant
    Bit rate                    : 384 kb/s
    Channel(s)                  : 6 channels
    Channel positions           : Front: L C R, Side: L R, LFE
    Sampling rate               : 48.0 kHz
    Frame rate                  : 31.250 FPS (1536 SPF)
    Bit depth                   : 16 bits
    Compression mode            : Lossy
    Delay relative to video     : -5 ms
    Stream size                 : 272 MiB (9%)
    Service kind                : Complete Main
    Default                     : No
    Forced                      : No
    Statistics Tags Issue       : mkvmerge v10.0.0 ('To Drown In You') 64bit 2017-09-25 03:19:54 / mkvmerge v10.0.0 ('To Drown In You') 64bit 2017-09-25 03:19:54 / UTC 2017-09-17T18:18:32Z
    FromStats_BitRate           : 384000
    FromStats_Duration          : 01:38:53.824000000
    FromStats_FrameCount        : 185432
    FromStats_StreamSize        : 284823552

    Audio #2
    ID                          : 3
    Format                      : AC-3
    Format/Info                 : Audio Coding 3
    Format settings, Endianness : Big
    Codec ID                    : A_AC3
    Duration                    : 1 h 38 min
    Bit rate mode               : Constant
    Bit rate                    : 384 kb/s
    Channel(s)                  : 6 channels
    Channel positions           : Front: L C R, Side: L R, LFE
    Sampling rate               : 48.0 kHz
    Frame rate                  : 31.250 FPS (1536 SPF)
    Bit depth                   : 16 bits
    Compression mode            : Lossy
    Delay relative to video     : -5 ms
    Stream size                 : 272 MiB (9%)
    Title                       : Surround
    Language                    : English
    Service kind                : Complete Main
    Default                     : Yes
    Forced                      : No
    Statistics Tags Issue       : mkvmerge v10.0.0 ('To Drown In You') 64bit 2017-09-25 03:19:54 / mkvmerge v10.0.0 ('To Drown In You') 64bit 2017-09-25 03:19:54 / UTC 2017-09-17T18:18:32Z
    FromStats_BitRate           : 384000
    FromStats_Duration          : 01:38:53.888000000
    FromStats_FrameCount        : 185434
    FromStats_StreamSize        : 284826624

    Text #1
    ID                          : 4
    Format                      : UTF-8
    Codec ID                    : S_TEXT/UTF8
    Codec ID/Info               : UTF-8 Plain Text
    Default                     : No
    Forced                      : No
    Statistics Tags Issue       : mkvmerge v10.0.0 ('To Drown In You') 64bit 2017-09-25 03:19:54 / mkvmerge v10.0.0 ('To Drown In You') 64bit 2017-09-25 03:19:54 / UTC 2017-09-17T18:18:32Z
    FromStats_BitRate           : 45
    FromStats_Duration          : 01:32:52.780000000
    FromStats_FrameCount        : 1025
    FromStats_StreamSize        : 31497

    Text #2
    ID                          : 5
    Format                      : UTF-8
    Codec ID                    : S_TEXT/UTF8
    Codec ID/Info               : UTF-8 Plain Text
    Language                    : Spanish
    Default                     : Yes
    Forced                      : No
    Statistics Tags Issue       : mkvmerge v10.0.0 ('To Drown In You') 64bit 2017-09-25 03:19:54 / mkvmerge v10.0.0 ('To Drown In You') 64bit 2017-09-25 03:19:54 / UTC 2017-09-17T18:18:32Z
    FromStats_BitRate           : 28
    FromStats_Duration          : 00:00:20.100000000
    FromStats_FrameCount        : 1
    FromStats_StreamSize        : 71

    Menu
    00:00:00.000                : :00:00:00.000
    00:09:10.592                : :00:09:10.550
    00:15:56.998                : :00:15:56.956
    00:21:27.286                : :00:21:27.286
    00:30:11.810                : :00:30:11.810
    00:40:33.431                : :00:40:33.431
    00:50:59.181                : :00:50:59.056
    00:58:37.514                : :00:58:37.514
    01:06:00.081                : :01:05:59.956
    01:15:01.580                : :01:15:01.497
    01:22:18.976                : :01:22:18.934
    01:33:00.658                : :01:33:00.575

  • Peso: 2.86 GB

Sinopsis

Un controlador aéreo vive una vida desordenada después de que es casi responsable de una colisión entre dos aviones causada por una misteriosa luz a las 2:22 pm. Este evento lo lleva a conocer una mujer con la que todo parece indicar su vida está entrelazada desde hace mucho tiempo atrás.

Ficha técnica

  • Titulo original: 2:22
  • Fecha de lanzamiento: 29-06-2017
  • Director: Paul Currie
  • Género: Drama, Suspense
  • Puntuación: 0.0 0 votos
  • Duración:
    1h 39m

Video trailer de la película

Enlaces de descarga

Aportes de DPeliculasHDmega la pass es:dpeliculashdmega.org Aportes de CinemaniaHD la pass es:eatsouthward.com
Guardado en : Drama , Suspense

Películas relacionadas

  • Cincuenta sombras liberadas (2018) WEB-DL Latino

    2018
    Cincuenta sombras liberadas (2018) WEB-DL Latino

    0.0 1h 45m 2018

    Creyendo que han dejado atrás las sombras del pasado, los recién casados Christian y Anastasia disfrutan...

    Director: James Foley

    Género: Drama

    Actores: Tyler Hoechlin

  • Niños del hombre (2006) Full 1080p Latino

    2006
    Niños del hombre (2006) Full 1080p Latino

    0.0 1 h 49 min 2006

    Año 2027: el ser humano está al borde de la extinción: los hombres han perdido la capacidad de procrear...

    Director: Terry Needham

    Género: Acción

    Actores: Yolanda Vazquez

  • Amateur (2018) NF Webrip 1080p Latino

    2018
    Amateur (2018) NF Webrip 1080p Latino

    0.0 1h 36m 2018

    Un joven jugador de baloncesto se enfrenta a las dificultades de encajar en el nuevo equipo. Adaptación...

    Director: Ryan Koo

    Género: Drama

    Actores: Tekola Cornetet

  • Winchester (2018) 1080p Latino

    2018
    Winchester (2018) 1080p Latino

    0.0 1h 39m 2018

    A finales del siglo XIX, después de la trágica muerte de su marido y su hijo, Sarah construye una casa-fortaleza...

    Director: Peter Spierig

    Género: Fantasía

    Actores: Xavier Gouault

  • Unlocked (2017) 1080p Latino

    2017
    Unlocked (2017) 1080p Latino

    3.0 1h 43m 2017

    Gira en torno a una agente de la CIA, especializada en interrogatorios, que es engañada por un sospechoso,...

    Director: Vera Homolacova

    Género: Acción

    Actores: Tosin Cole

Comentarios 12
  • seba - 15 octubre, 2017

    amigos la subiran gris ?

    • dpelis - 15 octubre, 2017

      intentaremos

  • seba - 25 septiembre, 2017

    genial… esperando la gris 😀

    • dpelis - 25 septiembre, 2017

      esperamos hber si hay bluray, sino ps usaremos este

  • seba - 24 septiembre, 2017

    para cuando en gris o negra ???

    • dpelis - 24 septiembre, 2017

      cuando salga audio 5.1

  • seba - 21 septiembre, 2017

    para cuando sale caratula negra o gris ?

    • dpelis - 24 septiembre, 2017

      cuando haya audio latino 5.1

  • kingboker - 17 septiembre, 2017

    hola estimado cuanto tu audio del dvd de delay con versiones bluray amiable?

    • dpelis - 24 septiembre, 2017

      no recuerdo estimado

  • Brian - 13 septiembre, 2017

    Hola, falta mucho para que la suban en caratla negra o plateada? para ver si aguanto un poco o la descargo ya a la pelicula

    • dpelis - 13 septiembre, 2017

      no se estimado, el bluray no trae latino,

-->