10.000 a.C. (2008) Full 1080p Latino

1.184 vistas
1 estrella2 estrellas3 estrellas4 estrellas5 estrellas (Ninguna valoración todavía)
Cargando…

Información de 10.000 a.C. (2008) Full 1080p Latino

Datos de la película

  • Calidad: Full 1080p
  • Audio: Español Latino AC3 5.1 BLURAY - Ingles AC3 5.1 BLURAY
  • Subtitulos: Español Latino PGS - Ingles PGS
  • Resolución: 1920X1080p
  • Formato: MKV
  • Codec: H.264
  • Encoder: Dracarys
  • Mediainfo: Clic para Mostrar Datos Ver
  • Format                                   : Matroska
    Format version                           : Version 4 / Version 2
    File size                                : 4.97 GiB
    Duration                                 : 1 h 48 min
    Overall bit rate                         : 6 527 kb/s
    Movie name                               : CinemaniaHDD.com
    Encoded date                             : UTC 2017-12-22 03:27:59 / UTC 2017-12-14T13:48:31Z
    Writing application                      : mkvmerge v15.0.0 ('Duel with the Devil') 64-bit
    Writing library                          : libebml v1.3.5 + libmatroska v1.4.5 / Lavf57.7.2

    Video
    ID                                       : 1
    Format                                   : AVC
    Format/Info                              : Advanced Video Codec
    Format profile                           : [email protected]
    Format settings                          : CABAC / 4 Ref Frames
    Format settings, CABAC                   : Yes
    Format settings, RefFrames               : 4 frames
    Codec ID                                 : V_MPEG4/ISO/AVC
    Duration                                 : 1 h 48 min
    Bit rate                                 : 5 117 kb/s
    Width                                    : 1 920 pixels
    Height                                   : 1 080 pixels
    Display aspect ratio                     : 16:9
    Frame rate mode                          : Constant
    Frame rate                               : 23.976 (24000/1001) FPS
    Color space                              : YUV
    Chroma subsampling                       : 4:2:0
    Bit depth                                : 8 bits
    Scan type                                : Progressive
    Bits/(Pixel*Frame)                       : 0.103
    Stream size                              : 3.89 GiB (78%)
    Title                                    : 10.000 a.C. (2008) Full 1080p Latino
    Writing library                          : x264 core 148 r2708 86b7198
    Encoding settings                        : cabac=1 / ref=4 / deblock=1:0:0 / analyse=0x3:0x133 / me=esa / subme=10 / psy=1 / psy_rd=1.00:0.00 / mixed_ref=1 / me_range=24 / chroma_me=1 / trellis=2 / 8x8dct=1 / cqm=0 / deadzone=21,11 / fast_pskip=1 / chroma_qp_offset=-2 / threads=34 / lookahead_threads=5 / sliced_threads=0 / nr=0 / decimate=1 / interlaced=0 / bluray_compat=0 / constrained_intra=0 / bframes=8 / b_pyramid=2 / b_adapt=2 / b_bias=0 / direct=3 / weightb=1 / open_gop=0 / weightp=2 / keyint=240 / keyint_min=24 / scenecut=40 / intra_refresh=0 / rc_lookahead=60 / rc=crf / mbtree=1 / crf=20.0 / qcomp=0.60 / qpmin=0 / qpmax=69 / qpstep=4 / vbv_maxrate=62500 / vbv_bufsize=78125 / crf_max=0.0 / nal_hrd=none / filler=0 / ip_ratio=1.40 / aq=1:1.00
    Language                                 : English
    Default                                  : Yes
    Forced                                   : No
    Color range                              : Limited
    Color primaries                          : BT.709
    Transfer characteristics                 : BT.709
    Matrix coefficients                      : BT.709
    Statistics Tags Issue                    : mkvmerge v15.0.0 ('Duel with the Devil') 64-bit 2017-12-22 03:27:59 / mkvmerge v15.0.0 ('Duel with the Devil') 64-bit 2017-12-22 03:27:59 / UTC 2017-12-14T13:48:31Z
    FromStats_BitRate                        : 5231663
    FromStats_Duration                       : 01:48:55.696000000
    FromStats_FrameCount                     : 156700
    FromStats_StreamSize                     : 4274070589

    Audio #1
    ID                                       : 2
    Format                                   : AC-3
    Format/Info                              : Audio Coding 3
    Format settings, Endianness              : Big
    Codec ID                                 : A_AC3
    Duration                                 : 1 h 48 min
    Bit rate mode                            : Constant
    Bit rate                                 : 640 kb/s
    Channel(s)                               : 6 channels
    Channel positions                        : Front: L C R, Side: L R, LFE
    Sampling rate                            : 48.0 kHz
    Frame rate                               : 31.250 FPS (1536 SPF)
    Bit depth                                : 16 bits
    Compression mode                         : Lossy
    Delay relative to video                  : 1 s 0 ms
    Stream size                              : 499 MiB (10%)
    Language                                 : Spanish
    Service kind                             : Complete Main
    Default                                  : Yes
    Forced                                   : No
    Statistics Tags Issue                    : mkvmerge v15.0.0 ('Duel with the Devil') 64-bit 2017-12-22 03:27:59 / mkvmerge v15.0.0 ('Duel with the Devil') 64-bit 2017-12-22 03:27:59 / UTC 2017-12-14T13:48:31Z
    FromStats_BitRate                        : 640000
    FromStats_Duration                       : 01:48:54.400000000
    FromStats_FrameCount                     : 204200
    FromStats_StreamSize                     : 522752000

    Audio #2
    ID                                       : 3
    Format                                   : AC-3
    Format/Info                              : Audio Coding 3
    Format settings, Endianness              : Big
    Codec ID                                 : A_AC3
    Duration                                 : 1 h 48 min
    Bit rate mode                            : Constant
    Bit rate                                 : 640 kb/s
    Channel(s)                               : 6 channels
    Channel positions                        : Front: L C R, Side: L R, LFE
    Sampling rate                            : 48.0 kHz
    Frame rate                               : 31.250 FPS (1536 SPF)
    Bit depth                                : 16 bits
    Compression mode                         : Lossy
    Stream size                              : 499 MiB (10%)
    Language                                 : English
    Service kind                             : Complete Main
    Default                                  : No
    Forced                                   : No
    Statistics Tags Issue                    : mkvmerge v15.0.0 ('Duel with the Devil') 64-bit 2017-12-22 03:27:59 / mkvmerge v15.0.0 ('Duel with the Devil') 64-bit 2017-12-22 03:27:59 / UTC 2017-12-14T13:48:31Z
    FromStats_BitRate                        : 640000
    FromStats_Duration                       : 01:48:55.744000000
    FromStats_FrameCount                     : 204242
    FromStats_StreamSize                     : 522859520

    Text #1
    ID                                       : 4
    Format                                   : UTF-8
    Codec ID                                 : S_TEXT/UTF8
    Codec ID/Info                            : UTF-8 Plain Text
    Title                                    : Forzados
    Language                                 : Spanish
    Default                                  : Yes
    Forced                                   : Yes
    Statistics Tags Issue                    : mkvmerge v15.0.0 ('Duel with the Devil') 64-bit 2017-12-22 03:27:59 / mkvmerge v15.0.0 ('Duel with the Devil') 64-bit 2017-12-22 03:27:59 / UTC 2017-12-14T13:48:31Z
    FromStats_BitRate                        : 2
    FromStats_Duration                       : 01:09:49.452000000
    FromStats_FrameCount                     : 67
    FromStats_StreamSize                     : 1472

    Text #2
    ID                                       : 5
    Format                                   : PGS
    Muxing mode                              : zlib
    Codec ID                                 : S_HDMV/PGS
    Codec ID/Info                            : Picture based subtitle format used on BDs/HD-DVDs
    Language                                 : English
    Default                                  : No
    Forced                                   : No
    Statistics Tags Issue                    : mkvmerge v15.0.0 ('Duel with the Devil') 64-bit 2017-12-22 03:27:59 / mkvmerge v15.0.0 ('Duel with the Devil') 64-bit 2017-12-22 03:27:59 / UTC 2017-12-14T13:48:31Z
    FromStats_BitRate                        : 16502
    FromStats_Duration                       : 01:48:04.145000000
    FromStats_FrameCount                     : 1492
    FromStats_StreamSize                     : 13375275

    Text #3
    ID                                       : 6
    Format                                   : PGS
    Muxing mode                              : zlib
    Codec ID                                 : S_HDMV/PGS
    Codec ID/Info                            : Picture based subtitle format used on BDs/HD-DVDs
    Language                                 : Spanish
    Default                                  : No
    Forced                                   : No
    Statistics Tags Issue                    : mkvmerge v15.0.0 ('Duel with the Devil') 64-bit 2017-12-22 03:27:59 / mkvmerge v15.0.0 ('Duel with the Devil') 64-bit 2017-12-22 03:27:59 / UTC 2017-12-14T13:48:31Z
    FromStats_BitRate                        : 13688
    FromStats_Duration                       : 01:47:45.167000000
    FromStats_FrameCount                     : 1258
    FromStats_StreamSize                     : 11062148

    Menu
    00:00:00.000                             : :Old Mother's Prophecy
    00:05:35.669                             : :Only Way To Be Together
    00:09:46.169                             : :Mammoth Hunt
    00:13:39.861                             : :Besting the Big Bull
    00:17:27.255                             : :D'Leh's Confession
    00:20:22.680                             : :Four-Legged Demons
    00:24:48.278                             : :Four Searchers
    00:27:51.670                             : :I Like Your Spirit
    00:30:28.827                             : :Jungle Rescue
    00:34:41.663                             : :Terror Birds
    00:39:04.467                             : :Toothsome Trap
    00:44:46.142                             : :Confrontations
    00:47:53.496                             : :The One Has Come
    00:52:24.099                             : :Warriors Unite
    00:56:56.705                             : :Eye Of the Snake
    01:01:34.191                             : :Mountains of the Gods
    01:06:30.737                             : :Mark of the Hunter
    01:10:58.045                             : :Be As Your Father
    01:13:46.505                             : :Marked Woman
    01:17:18.551                             : :Together As One
    01:19:43.529                             : :Attack and Revolt
    01:24:17.177                             : :Almighty Dethroned
    01:29:54.264                             : :You Came For Me
    01:32:52.025                             : :Old Mother's Gift
    01:35:40.985                             : :Fulfilled
    01:37:52.033                             : :End Credits

  • Peso: 4.97 GiB

Sinopsis

Era la época en la que el hombre y la bestia eran salvajes y el gran mamut recorría la Tierra. Una época en la que nacieron las ideas y las creencias que forjaron a la humanidad para siempre. “10.000” narra la historia de un joven cazador (Steven Strait) en su misión de guiar a un ejército a través de un vasto desierto, luchando contra tigres dientes de sable y depredadores prehistóricos, mientras descubre una civilización perdida e intenta rescatar a la mujer que ama.

Ficha técnica

Video trailer de la película

Enlaces de descarga

Rip de Bluray

Descargar 10.000 a.C. (2008) Full 1080p Latino




Aportes de DPeliculasHDmega la pass es:dpeliculashdmega.org Aportes de CinemaniaHD la pass es:eatsouthward.com

Películas relacionadas

  • Batman Ninja (2018) WEB-DL 1080p Latino

    2018
    Batman Ninja (2018) WEB-DL 1080p Latino

    5.0 1h 25m 2018

    Batman, junto a sus aliados y enemigos, se ve transportado desde la moderna Gotham hasta el Japón feudal....

    Director: Junpei Mizusaki

    Género: Acción

    Actores: Yuuki Kaji

  • Niños del hombre (2006) Full 1080p Latino

    2006
    Niños del hombre (2006) Full 1080p Latino

    0.0 1 h 49 min 2006

    Año 2027: el ser humano está al borde de la extinción: los hombres han perdido la capacidad de procrear...

    Director: Terry Needham

    Género: Acción

    Actores: Yolanda Vazquez

  • Amateur (2018) NF Webrip 1080p Latino

    2018
    Amateur (2018) NF Webrip 1080p Latino

    0.0 1h 36m 2018

    Un joven jugador de baloncesto se enfrenta a las dificultades de encajar en el nuevo equipo. Adaptación...

    Director: Ryan Koo

    Género: Drama

    Actores: Tekola Cornetet

  • Winchester (2018) 1080p Latino

    2018
    Winchester (2018) 1080p Latino

    0.0 1h 39m 2018

    A finales del siglo XIX, después de la trágica muerte de su marido y su hijo, Sarah construye una casa-fortaleza...

    Director: Peter Spierig

    Género: Fantasía

    Actores: Xavier Gouault

Comentarios 0
-->